Скачать через торрент Романс валькирий Walkure Romanze бесплатно Аниме Все серии на русском torrent

Если у вас наблюдаются проблемы со скриншотами, переходом по ссылками, скачиванием торрентов - проблемы в блокировщике рекламы AdBlock. #хорошегоДня!


Статистика раздачи
Размер:  1.75 GB   |    Зарегистрирован:  4 года 1 месяц   |    .torrent скачан:  38 раз   |   
Раздают:  1  
   
Загрузка...
 
Автор Сообщение

Polarnik

avatar Polarnik


Романс валькирийWalkure Romanze
Год выпуска: 2013
Страна: Япония
Жанр: романтика, школа
Тип: ТВ (12 эп.)
Продолжительность: ~ 25 мин.
Озвучка:
Оригинальная
Cuba77 & Nika Lenina (двухголосая)
Субтитры:
Zool (полные)
Студия: 8bit
Режиссер: Ямамото Юсукэ
Описание: В этом мире рыцарские схватки превратились в популярный спорт, и попасть в рыцарскую академию, что раскинулась в стилизованном средневековом городе, стремятся талантливые ребята со всего света. Исход поединка решает не грубая сила, а точность ударов, потому ристалище доступно для всех. Такахиро Мидзуно считался одним из лучших, но в старшей школе из-за травмы был вынужден перейти в оруженосцы, то есть в помощники и тренеры, которые могут полностью раскрыть потенциал бойца и его коня. Хорошие помощники ценятся на вес золота, потому недостатка в приглашениях к сотрудничеству перед летним турниром у парня не было. Стоит ли удивляться, что все предложения поступили от бойцов-девушек?!
Самое весомое из них, разумеется, сделала Селия Кумани Энтре, президент совета и первый рыцарь академии. Ее извечная соперница Ноэль Марс Аскот не захотела уступать и тоже обратилась с аналогичной просьбой. Не отстала от старших подруг перспективный новичок Лиза Эостре – в конце концов, ей «принимать школу» после ухода нынешних суперзвезд. Ну и, конечно, есть подруга детства Мио Кисаки, которая, правда, в седле сидеть не умеет, но… что не сделаешь ради любимого! В общем, достойные леди и джентльмены, турнир уже начался – делайте ставки на победительницу!
© Hollow, World Art
01. The Flower Garden
02. Mio`s Trials
03. The Morning of the Duel
04. What It Takes to Be a Knight

Ссылки: World-Art | AniDB | ANN
Качество: HDTVRip [Leopard-Raws] | Тип видео: без хардсаба | Формат: mp4

Видео: x264, 8 bit, 1280x720 (16:9), 23.976 fps, ~2359 Kbps, 0.107 bit/pixel
Аудио:
AAC, 48,0 kHz, stereo, 2ch, VBR ~192 kbps - встроенное
AAC, 48,0 kHz, stereo, 2ch, VBR ~192 kbps - встроенное
Субтитры:
ASS - отдельные
Чаптеры: отсутствуют
Общее
Полное имя : Walkure Romanze - 01 RAW (MX 1280x720 x264 AAC).mp4
Формат : MPEG-4
Профиль формата : Base Media
Идентификатор кодека : isom
Размер файла : 472 Мбайт
Продолжительность : 24 м.
Режим общего битрейта : Переменный
Общий поток : 2748 Кбит/сек
Дата кодирования : UTC 2013-11-03 10:27:57
Дата пометки : UTC 2013-11-03 10:27:57
Программа кодирования : Yamb 2.1.0.0 [http://yamb.unite-video.com]

Видео
Идентификатор : 1
Формат : AVC
Формат/Информация : Advanced Video Codec
Профиль формата : High@L4.1
Параметр CABAC формата : Да
Параметр ReFrames формата : 4 кадра
Идентификатор кодека : avc1
Идентификатор кодека/Информация : Advanced Video Coding
Продолжительность : 23 м.
Битрейт : 2359 Кбит/сек
Максимальный битрейт : 16,2 Мбит/сек
Ширина : 1280 пикселей
Высота : 720 пикселей
Соотношение сторон : 16:9
Режим частоты кадров : Постоянный
Частота кадров : 23,976 кадра/сек
Цветовое пространство : YUV
Субдискретизация насыщенности : 4:2:0
Битовая глубина : 8 бит
Тип развёртки : Прогрессивная
Бит/(Пиксели*Кадры) : 0.107
Размер потока : 405 Мбайт (86%)
Заголовок : Leopard-Raws
Библиотека кодирования : x264 core 129 r2245+729M 1a52e03
Настройки программы : cabac=1 / ref=4 / deblock=1:1:-1 / analyse=0x3:0x113 / me=umh / subme=9 / psy=1 / fade_compensate=0.00 / psy_rd=1.00:0.00 / mixed_ref=1 / me_range=24 / chroma_me=1 / trellis=2 / 8x8dct=1 / cqm=0 / deadzone=21,11 / fast_pskip=1 / chroma_qp_offset=-2 / threads=8 / lookahead_threads=1 / sliced_threads=0 / nr=0 / decimate=1 / interlaced=0 / bluray_compat=0 / constrained_intra=0 / fgo=0 / bframes=9 / b_pyramid=2 / b_adapt=2 / b_bias=0 / direct=1 / weightb=1 / open_gop=0 / weightp=2 / keyint=240 / keyint_min=24 / scenecut=40 / intra_refresh=0 / rc=crf / mbtree=0 / crf=19.0 / qcomp=0.72 / qpmin=0 / qpmax=69 / qpstep=4 / ip_ratio=1.40 / pb_ratio=1.30 / aq=1:0.85
Дата кодирования : UTC 2013-10-06 21:58:48
Дата пометки : UTC 2013-11-03 10:28:09
Основные цвета : BT.709
Характеристики трансфера : BT.709
Коэффициенты матрицы : BT.709

Аудио #1
Идентификатор : 2
Формат : AAC
Формат/Информация : Advanced Audio Codec
Профиль формата : LC
Идентификатор кодека : 40
Продолжительность : 24 м.
Вид битрейта : Переменный
Битрейт : 192 Кбит/сек
Максимальный битрейт : 200 Кбит/сек
Каналы : 2 канала
Расположение каналов : Front: L R
Частота : 48,0 КГц
Метод сжатия : С потерями
Задержка видео : 83 мс.
Размер потока : 33,0 Мбайт (7%)
Заголовок : Cuba77 & Nika Lenina
Язык : Russian
Дата кодирования : UTC 2013-11-03 10:04:18
Дата пометки : UTC 2013-11-03 10:28:09

Аудио #2
Идентификатор : 3
Формат : AAC
Формат/Информация : Advanced Audio Codec
Профиль формата : LC
Идентификатор кодека : 40
Продолжительность : 24 м.
Вид битрейта : Переменный
Битрейт : 192 Кбит/сек
Максимальный битрейт : 231 Кбит/сек
Каналы : 2 канала
Расположение каналов : Front: L R
Частота : 48,0 КГц
Метод сжатия : С потерями
Задержка видео : 83 мс.
Размер потока : 32,9 Мбайт (7%)
Заголовок : Original
Язык : Japanese
Дата кодирования : UTC 2013-10-06 18:14:58
Дата пометки : UTC 2013-11-03 10:28:09


Трекер:  [ 05-Ноя-2013 15:34 ]

  

Скачать .torrent

Размер .torrent файла 19 KB


Размер: 1.75 GB
Хэш (hash) релиза: 02ef48a6272e87dbc22c9dce9934f17969433556
Подписка на обновления:

Торренты, похожие на Романс валькирий Walkure Romanze скачать торрент

Форум Название Автор Размер S L Добавлен
Аниме | Rips ·· Романс Валькирий / Walkure Romanze (Ямамото Юсукэ) [TV] [12 из 12] [без хардсаба] [RUS(ext), JAP+SUB] [2013 г., романтика, этти, BDRip] Galfimbul 44996378044.19 GB 0 0 1435645809

09:30

30-Июн-15

Аниме | HD Rips ·· Романс Валькирий / Walkure Romanze [TV] [12 из 12] [Без хардсаба] [JAP, RUS(ext), SUB] [2013 г., романтика, этти, BDRip] [1080p] Galfimbul 1487796130113.86 GB 0 0 1410955240

15:00

17-Сен-14

Аниме | HD Rips ·· Романс Валькирий / Walkure Romanze [TV] [12 из 12] [Без хардсаба] [JAP, RUS(ext), SUB] [2013 г., романтика, этти, BDRemux] [1080p] Galfimbul 9609013532289.49 GB 0 0 1410471071

00:31

12-Сен-14

Аниме | HD Rips ·· Романс Валькирии / Walkure Romanze [TV] [12 из 12] [Без хардсаба] [RUS(int), JAP, SUB] [2013 г., романтика, спорт, школа, этти, HDTVRip] [720p] Galfimbul 47592310924.43 GB 0 0 1388936127

18:35

5-Янв-14

Аниме | HD Rips ·· Романс Валькирии / Walkure Romanze (Ямамото Юсукэ) [TV] [12 из 12] [без хардсаба] [JAP+SUB] [2013 г., романтика, комедия, этти WEBRip] [720p] Galfimbul 40547631093.78 GB 0 0 1388690982

22:29

2-Янв-14

Аниме | HD Rips ·· Романс Валькирий / Walkure Romanze (Ямамото Юсукэ) [TV] [01-03 из 12] [Без хардсаба] [JAP+SUB] [2013 г., приключения, комедия, фэнтези, этти, романтика, школа, WEBRip] [1080p] Polarnik 17020782851.59 GB 0 0 1382972031

17:53

28-Окт-13

Еще никто не оставлял запись к записи скачать торрент Романс валькирий Walkure Romanze . Будь первым!

!Обратная связь