Скачать через торрент музыку По ту сторону двери бесплатно без регистрации torrent

Если у вас наблюдаются проблемы со скриншотами, переходом по ссылками, скачиванием торрентов - проблемы в блокировщике рекламы AdBlock. #хорошегоДня!


Статистика раздачи
Размер:  228 MB   |    Зарегистрирован:  4 года   |    .torrent скачан:  24 раза   |   
Раздают:  1  
   
Загрузка...
 
Автор Сообщение

Galfimbul

avatar Galfimbul


По ту сторону двери (За дверью) | Oltre La Porta

Жанр: Score
Композитор: Pino Donaggio
Год выпуска диска: 1992
Год выпуска фильма: 1982
Страна-производитель диска: Italy
Издатель (лейбл): CAM
Номер по каталогу: CSE 034
Аудиокодек: FLAC (*.flac)
Тип рипа: tracks+.cue
Битрейт аудио: lossless
Продолжительность: 00:37:56
Источник: собственный рип
Наличие сканов в содержимом раздачи: да

Треклист:
1. Enrico Spia Casa Matthieu (02:00)
2. La Campagna del Marocco (03:42)
3. Visita Al Carcere (01:37)
4. Agnoscia e Amore a Marrakech (02:15)
5. La Loro Musica (03:36)
6. Il Finto Suicido (01:06)
7. Oltre La Porta (02:10)
8. I Corridoi del Carcere (00:47)
9. Serenita In Casa Matthieu (02:06)
10. Aitbenhaddou (02:57)
11. Racconto Ad Aitbenhaddou (02:01)
12. Nina In Taxi (00:52)
13. Enrico Oltre La Porta (02:12)
14. Villa Moretti (01:51)
15. L''ansia di Nina In Autostrada (01:30)
16. I Dubbi Del Sig. Mutti (04:14)
17. Il Rittorno a Marrakech (03:00)
Exact Audio Copy V1.0 beta 3 from 29. August 2011

EAC extraction logfile from 17. November 2013, 21:00

Pino Donaggio / Oltre La Porta

Used drive : PLEXTOR DVDR PX-L890SA Adapter: 0 ID: 1

Read mode : SecureUtilize accurate stream : YesDefeat audio cache : YesMake use of C2 pointers : No

Read offset correction : 6Overread into Lead-In and Lead-Out : NoFill up missing offset samples with silence : YesDelete leading and trailing silent blocks : NoNull samples used in CRC calculations : YesUsed interface : Native Win32 interface for Win NT & 2000Gap handling : Appended to previous track

Used output format : User Defined EncoderSelected bitrate : 768 kBit/sQuality : HighAdd ID3 tag : NoCommand line compressor : C:\Program Files\Exact Audio Copy\FLAC\FLAC.EXEAdditional command line options : -V -8 -T "Genre=%genre%" -T "Artist=%artist%" -T "Title=%title%" -T "Album=%albumtitle%" -T "Date=%year%" -T "Tracknumber=%tracknr%" -T "Comment=%comment%" %source%

TOC of the extracted CD

Track | Start | Length | Start sector | End sector --------------------------------------------------------- 1 | 0:00.00 | 2:00.15 | 0 | 9014 2 | 2:00.15 | 3:42.23 | 9015 | 25687 3 | 5:42.38 | 1:37.57 | 25688 | 33019 4 | 7:20.20 | 2:15.45 | 33020 | 43189 5 | 9:35.65 | 3:36.45 | 43190 | 59434 6 | 13:12.35 | 1:06.60 | 59435 | 64444 7 | 14:19.20 | 2:10.25 | 64445 | 74219 8 | 16:29.45 | 0:47.20 | 74220 | 77764 9 | 17:16.65 | 2:06.35 | 77765 | 87249 10 | 19:23.25 | 2:57.05 | 87250 | 100529 11 | 22:20.30 | 2:01.23 | 100530 | 109627 12 | 24:21.53 | 0:52.27 | 109628 | 113554 13 | 25:14.05 | 2:12.08 | 113555 | 123462 14 | 27:26.13 | 1:51.17 | 123463 | 131804 15 | 29:17.30 | 1:30.58 | 131805 | 138612 16 | 30:48.13 | 4:14.60 | 138613 | 157722 17 | 35:02.73 | 3:00.35 | 157723 | 171257

Track 1

Filename F:\torrent\Oltre La Porta_Pino Donaggio\score\01 - Enrico Spia Casa Matthieu.wav

Pre-gap length 0:00:02.00

Peak level 60.5 % Extraction speed 4.1 X Track quality 100.0 % Test CRC 5A3DCA7D Copy CRC 5A3DCA7D Accurately ripped (confidence 2) [97D1854D] (AR v2) Copy OK

Track 2

Filename F:\torrent\Oltre La Porta_Pino Donaggio\score\02 - La Campagna del Marocco.wav

Pre-gap length 0:00:01.62

Peak level 79.1 % Extraction speed 5.1 X Track quality 100.0 % Test CRC 6CE65C91 Copy CRC 6CE65C91 Accurately ripped (confidence 2) [21E596A4] (AR v2) Copy OK

Track 3

Filename F:\torrent\Oltre La Porta_Pino Donaggio\score\03 - Visita Al Carcere.wav

Pre-gap length 0:00:02.45

Peak level 65.8 % Extraction speed 4.6 X Track quality 100.0 % Test CRC 45B74739 Copy CRC 45B74739 Accurately ripped (confidence 2) [DBFEDC09] (AR v2) Copy OK

Track 4

Filename F:\torrent\Oltre La Porta_Pino Donaggio\score\04 - Agnoscia e Amore a Marrakech.wav

Pre-gap length 0:00:02.50

Peak level 74.0 % Extraction speed 5.2 X Track quality 100.0 % Test CRC 8FCA8A20 Copy CRC 8FCA8A20 Accurately ripped (confidence 2) [8E84FC79] (AR v2) Copy OK

Track 5

Filename F:\torrent\Oltre La Porta_Pino Donaggio\score\05 - La Loro Musica.wav

Pre-gap length 0:00:02.17

Peak level 71.4 % Extraction speed 6.0 X Track quality 100.0 % Test CRC 5DA2AA20 Copy CRC 5DA2AA20 Accurately ripped (confidence 2) [28613959] (AR v2) Copy OK

Track 6

Filename F:\torrent\Oltre La Porta_Pino Donaggio\score\06 - Il Finto Suicido.wav

Pre-gap length 0:00:02.22

Peak level 68.4 % Extraction speed 4.6 X Track quality 100.0 % Test CRC B4756A77 Copy CRC B4756A77 Accurately ripped (confidence 2) [51140943] (AR v2) Copy OK

Track 7

Filename F:\torrent\Oltre La Porta_Pino Donaggio\score\07 - Oltre La Porta.wav

Pre-gap length 0:00:02.37

Peak level 35.1 % Extraction speed 5.8 X Track quality 100.0 % Test CRC 0F956CC9 Copy CRC 0F956CC9 Accurately ripped (confidence 2) [E2A1D286] (AR v2) Copy OK

Track 8

Filename F:\torrent\Oltre La Porta_Pino Donaggio\score\08 - I Corridoi del Carcere.wav

Pre-gap length 0:00:02.40

Peak level 23.8 % Extraction speed 4.2 X Track quality 100.0 % Test CRC 2815D888 Copy CRC 2815D888 Accurately ripped (confidence 2) [284CD354] (AR v2) Copy OK

Track 9

Filename F:\torrent\Oltre La Porta_Pino Donaggio\score\09 - Serenita In Casa Matthieu.wav

Pre-gap length 0:00:02.10

Peak level 100.0 % Extraction speed 4.9 X Track quality 99.9 % Test CRC 56B7066C Copy CRC 56B7066C Accurately ripped (confidence 2) [711B8FF0] (AR v2) Copy OK

Track 10

Filename F:\torrent\Oltre La Porta_Pino Donaggio\score\10 - Aitbenhaddou.wav

Pre-gap length 0:00:01.65

Peak level 65.1 % Extraction speed 6.7 X Track quality 100.0 % Test CRC 295BDF2D Copy CRC 295BDF2D Accurately ripped (confidence 2) [40212355] (AR v2) Copy OK

Track 11

Filename F:\torrent\Oltre La Porta_Pino Donaggio\score\11 - Racconto Ad Aitbenhaddou.wav

Pre-gap length 0:00:02.25

Peak level 65.8 % Extraction speed 6.4 X Track quality 100.0 % Test CRC 605A7F77 Copy CRC 605A7F77 Accurately ripped (confidence 2) [D9C3BBE2] (AR v2) Copy OK

Track 12

Filename F:\torrent\Oltre La Porta_Pino Donaggio\score\12 - Nina In Taxi.wav

Pre-gap length 0:00:01.50

Peak level 70.7 % Extraction speed 4.9 X Track quality 100.0 % Test CRC 1A1A0C1D Copy CRC 1A1A0C1D Accurately ripped (confidence 2) [210164F2] (AR v2) Copy OK

Track 13

Filename F:\torrent\Oltre La Porta_Pino Donaggio\score\13 - Enrico Oltre La Porta.wav

Pre-gap length 0:00:01.40

Peak level 37.9 % Extraction speed 5.5 X Track quality 99.9 % Test CRC 72D6D2B2 Copy CRC 72D6D2B2 Accurately ripped (confidence 2) [F89C1006] (AR v2) Copy OK

Track 14

Filename F:\torrent\Oltre La Porta_Pino Donaggio\score\14 - Villa Moretti.wav

Pre-gap length 0:00:01.70

Peak level 71.5 % Extraction speed 5.3 X Track quality 99.9 % Test CRC 7C30091E Copy CRC 7C30091E Accurately ripped (confidence 2) [9603DDA6] (AR v2) Copy OK

Track 15

Filename F:\torrent\Oltre La Porta_Pino Donaggio\score\15 - L''ansia di Nina In Autostrada.wav

Pre-gap length 0:00:01.45

Peak level 70.2 % Extraction speed 6.4 X Track quality 100.0 % Test CRC EC02A93D Copy CRC EC02A93D Accurately ripped (confidence 2) [6787FB44] (AR v2) Copy OK

Track 16

Filename F:\torrent\Oltre La Porta_Pino Donaggio\score\16 - I Dubbi Del Sig. Mutti.wav

Pre-gap length 0:00:02.05

Peak level 31.0 % Extraction speed 8.1 X Track quality 100.0 % Test CRC 726090F2 Copy CRC 726090F2 Accurately ripped (confidence 2) [0F02CA80] (AR v2) Copy OK

Track 17

Filename F:\torrent\Oltre La Porta_Pino Donaggio\score\17 - Il Rittorno a Marrakech.wav

Pre-gap length 0:00:01.50

Peak level 73.5 % Extraction speed 7.9 X Track quality 100.0 % Test CRC 3295CE81 Copy CRC 3295CE81 Accurately ripped (confidence 2) [5052BD6D] (AR v2) Copy OK

All tracks accurately ripped

No errors occurred

End of status report

==== Log checksum 7CB8F2972828320F9D7E1370B357768739F4A6F8F189824BB427A69CCB0286C7 ====
REM GENRE SoundtrackREM DATE 1992REM DISCID E108EB11REM COMMENT "ExactAudioCopy v1.0b3"PERFORMER "Pino Donaggio"TITLE "Oltre La Porta"FILE "01 - Enrico Spia Casa Matthieu.wav" WAVE TRACK 01 AUDIO TITLE "Enrico Spia Casa Matthieu" PERFORMER "Pino Donaggio" INDEX 01 00:00:00 TRACK 02 AUDIO TITLE "La Campagna del Marocco" PERFORMER "Pino Donaggio" INDEX 00 01:58:28FILE "02 - La Campagna del Marocco.wav" WAVE INDEX 01 00:00:00 TRACK 03 AUDIO TITLE "Visita Al Carcere" PERFORMER "Pino Donaggio" INDEX 00 03:39:53FILE "03 - Visita Al Carcere.wav" WAVE INDEX 01 00:00:00 TRACK 04 AUDIO TITLE "Agnoscia e Amore a Marrakech" PERFORMER "Pino Donaggio" INDEX 00 01:35:07FILE "04 - Agnoscia e Amore a Marrakech.wav" WAVE INDEX 01 00:00:00 TRACK 05 AUDIO TITLE "La Loro Musica" PERFORMER "Pino Donaggio" INDEX 00 02:13:28FILE "05 - La Loro Musica.wav" WAVE INDEX 01 00:00:00 TRACK 06 AUDIO TITLE "Il Finto Suicido" PERFORMER "Pino Donaggio" INDEX 00 03:34:23FILE "06 - Il Finto Suicido.wav" WAVE INDEX 01 00:00:00 TRACK 07 AUDIO TITLE "Oltre La Porta" PERFORMER "Pino Donaggio" INDEX 00 01:04:23FILE "07 - Oltre La Porta.wav" WAVE INDEX 01 00:00:00 TRACK 08 AUDIO TITLE "I Corridoi del Carcere" PERFORMER "Pino Donaggio" INDEX 00 02:07:60FILE "08 - I Corridoi del Carcere.wav" WAVE INDEX 01 00:00:00 TRACK 09 AUDIO TITLE "Serenita In Casa Matthieu" PERFORMER "Pino Donaggio" INDEX 00 00:45:10FILE "09 - Serenita In Casa Matthieu.wav" WAVE INDEX 01 00:00:00 TRACK 10 AUDIO TITLE "Aitbenhaddou" PERFORMER "Pino Donaggio" INDEX 00 02:04:45FILE "10 - Aitbenhaddou.wav" WAVE INDEX 01 00:00:00 TRACK 11 AUDIO TITLE "Racconto Ad Aitbenhaddou" PERFORMER "Pino Donaggio" INDEX 00 02:54:55FILE "11 - Racconto Ad Aitbenhaddou.wav" WAVE INDEX 01 00:00:00 TRACK 12 AUDIO TITLE "Nina In Taxi" PERFORMER "Pino Donaggio" INDEX 00 01:59:48FILE "12 - Nina In Taxi.wav" WAVE INDEX 01 00:00:00 TRACK 13 AUDIO TITLE "Enrico Oltre La Porta" PERFORMER "Pino Donaggio" INDEX 00 00:50:62FILE "13 - Enrico Oltre La Porta.wav" WAVE INDEX 01 00:00:00 TRACK 14 AUDIO TITLE "Villa Moretti" PERFORMER "Pino Donaggio" INDEX 00 02:10:13FILE "14 - Villa Moretti.wav" WAVE INDEX 01 00:00:00 TRACK 15 AUDIO TITLE "L''ansia di Nina In Autostrada" PERFORMER "Pino Donaggio" INDEX 00 01:49:47FILE "15 - L''ansia di Nina In Autostrada.wav" WAVE INDEX 01 00:00:00 TRACK 16 AUDIO TITLE "I Dubbi Del Sig. Mutti" PERFORMER "Pino Donaggio" INDEX 00 01:28:53FILE "16 - I Dubbi Del Sig. Mutti.wav" WAVE INDEX 01 00:00:00 TRACK 17 AUDIO TITLE "Il Rittorno a Marrakech" PERFORMER "Pino Donaggio" INDEX 00 04:13:10FILE "17 - Il Rittorno a Marrakech.wav" WAVE INDEX 01 00:00:00
AUDIOCHECKER v2.0 beta (build 457) - by Dester - opdester@freemail.hu~~~~~~~~~~~~~~~~~~~~~~~~~~~~~~~~~~-=== НЕ РЕДАКТИРУЙТЕ ЭТОТ ФАЙЛ! ===-

Путь: ...\score

01 -=- 01 - Enrico Spia Casa Matthieu.flac -=- CDDA (100%)02 -=- 02 - La Campagna del Marocco.flac -=- CDDA (100%)03 -=- 03 - Visita Al Carcere.flac -=- CDDA (100%)04 -=- 04 - Agnoscia e Amore a Marrakech.flac -=- CDDA (100%)05 -=- 05 - La Loro Musica.flac -=- CDDA (100%)06 -=- 06 - Il Finto Suicido.flac -=- CDDA (100%)07 -=- 07 - Oltre La Porta.flac -=- CDDA (100%)08 -=- 08 - I Corridoi del Carcere.flac -=- CDDA (100%)09 -=- 09 - Serenita In Casa Matthieu.flac -=- CDDA (100%)10 -=- 10 - Aitbenhaddou.flac -=- CDDA (100%)11 -=- 11 - Racconto Ad Aitbenhaddou.flac -=- CDDA (100%)12 -=- 12 - Nina In Taxi.flac -=- CDDA (100%)13 -=- 13 - Enrico Oltre La Porta.flac -=- CDDA (100%)14 -=- 14 - Villa Moretti.flac -=- CDDA (100%)15 -=- 15 - L''ansia di Nina In Autostrada.flac -=- CDDA (100%)16 -=- 16 - I Dubbi Del Sig. Mutti.flac -=- CDDA (99%)17 -=- 17 - Il Rittorno a Marrakech.flac -=- CDDA (100%)

Сводка 99,94% CDDA

232167668


Трекер:  [ 14-Дек-2013 21:44 ]

  

Скачать .torrent

Размер .torrent файла 20 KB


Размер: 228 MB
Хэш (hash) релиза: 9668f053f84b40435c4e6bca7cfb257443d0f101

Торренты, похожие на По ту сторону двери скачать торрент

Форум Название Автор Размер S L Добавлен
Саундтреки к фильмам и мультфильмам (mp3) ·· (Score) По ту сторону двери / The Other Side Of The Door (Joseph Bishara) - 2016, MP3, 320 kbps Galfimbul 9857676994 MB 0 0 1464556755

00:19

30-Май-16

bot

Топик был перенесен в форум Саундтреки к фильмам и мультфильмам (lossless)

Перенес Galfimbul

Хотите добавить комментарий к записи скачать торрент По ту сторону двери

!Обратная связь