Скачать через торрент музыку Подпольная империя Boardwalk Empire бесплатно без регистрации torrent

Если у вас наблюдаются проблемы со скриншотами, переходом по ссылками, скачиванием торрентов - проблемы в блокировщике рекламы AdBlock. #хорошегоДня!


Статистика раздачи
Размер:  367 MB   |    Зарегистрирован:  3 года 11 месяцев   |    .torrent скачан:  104 раза   |   
Раздают:  1  
   
Загрузка...
 
Автор Сообщение

Galfimbul

avatar Galfimbul


Подпольная империя / Boardwalk Empire

Название альбома: Boardwalk Empire Volume 2 Music From The HBO Original Series
Жанр: Soundtrack
Год выпуска диска: 2013
Страна-производитель диска: USA
Издатель (лейбл): ABKCO Music and Records
Аудиокодек: FLAC (*.flac)
Тип рипа: image+.cue
Битрейт аудио: lossless
Источник: собственный рип
Наличие сканов в содержимом раздачи: да
Треклист:
1. David Johansen - Strut Miss Lizzie
2. Stephen Derosa - Old King Tut
3. Elvis Costello - It Had To Be You
4. Vince Giordano & The Nighthawks - Everybody Loves My Baby
5. Liza Minnelli - You''ve Got To See Mama Ev''ry Night
6. Leon Redbone - Baby Won''t You Please Come Home
7. St. Vincent - Make Believe
8. Pokey Lafarge - Lovesick Blues
9. Neko Case - Nobody Knows You When You''re Down And Out
10. Karen Elson - Who''s Sorry Now
11. Stephen Derosa - You''d Be Surprised
12. Margot Bingham - I''m Going South
13. Vince Giordano & The Nighthawks - Sugarfoot Stomp
14. Rufus Wainwright - Jimbo Jambo
15. Kathy Brier - There''ll Be Some Changes Made
16. Margot Bingham - Somebody Loves Me
17. Chaim Tannenbaum - All Alone
18. Loudon Wainwright III - The Prisoner''s Song
19. Patti Smith - I Ain''t Got Nobody
20. Matt Berninger - I''ll See You In My Dreams
Exact Audio Copy V1.0 beta 3 from 29. August 2011

Отчёт EAC об извлечении, выполненном 23. ноября 2013, 21:34

Various Artist / Boardwalk Empire Volume 2 Music From The HBO Original Series

Дисковод: HL-DT-STDVDRAM GT50N Adapter: 0 ID: 1

Режим чтения : ДостоверностьИспользование точного потока : ДаОтключение кэша аудио : ДаИспользование указателей C2 : Нет

Коррекция смещения при чтении : 103Способность читать области Lead-in и Lead-out : НетЗаполнение пропущенных сэмплов тишиной : ДаУдаление блоков с тишиной в начале и конце : НетПри вычислениях CRC использовались нулевые сэмплы : ДаИнтерфейс : Встроенный Win32-интерфейс для Win NT/2000

Выходной формат : Пользовательский кодировщикВыбранный битрейт : 768 kBit/sКачество : ВысокийДобавление ID3-тега : НетУтилита сжатия : C:\Program Files (x86)\Exact Audio Copy\FLAC\FLAC.EXEДополнительные параметры : -V -8 -T "Date=%year%" -T "Genre=%genre%" %source%

TOC извлечённого CD

Трек | Старт | Длительность | Начальный сектор | Конечный сектор --------------------------------------------------------------------- 1 | 0:00.00 | 2:31.54 | 0 | 11378 2 | 2:31.54 | 2:57.18 | 11379 | 24671 3 | 5:28.72 | 3:17.26 | 24672 | 39472 4 | 8:46.23 | 3:08.30 | 39473 | 53602 5 | 11:54.53 | 2:51.13 | 53603 | 66440 6 | 14:45.66 | 3:47.36 | 66441 | 83501 7 | 18:33.27 | 2:47.14 | 83502 | 96040 8 | 21:20.41 | 2:52.54 | 96041 | 108994 9 | 24:13.20 | 2:52.61 | 108995 | 121955 10 | 27:06.06 | 3:15.48 | 121956 | 136628 11 | 30:21.54 | 3:04.27 | 136629 | 150455 12 | 33:26.06 | 2:54.07 | 150456 | 163512 13 | 36:20.13 | 2:47.04 | 163513 | 176041 14 | 39:07.17 | 3:04.25 | 176042 | 189866 15 | 42:11.42 | 2:29.26 | 189867 | 201067 16 | 44:40.68 | 3:02.11 | 201068 | 214728 17 | 47:43.04 | 2:50.60 | 214729 | 227538 18 | 50:33.64 | 3:06.70 | 227539 | 241558 19 | 53:40.59 | 3:30.04 | 241559 | 257312 20 | 57:10.63 | 1:46.59 | 257313 | 265321

Характеристики диапазона извлечения и сообщения об ошибках

Выбранный диапазон

Имя файла D:\Music\Boardwalk Empire - Vol. 2\01 Трек01.wav

Пиковый уровень 100.0 % Скорость извлечения 4.1 X Качество диапазона 100.0 % CRC теста EECD97DF CRC копии EECD97DF Копирование... OK

Ошибок не произошло

AccurateRip: сводка

Трек 1 : извлечено точно (доверие 1) [3F886252] (AR v2)Трек 2 : извлечено точно (доверие 1) [93ABFDA1] (AR v2)Трек 3 : извлечено точно (доверие 1) [7870B067] (AR v2)Трек 4 : извлечено точно (доверие 1) [84B9A522] (AR v2)Трек 5 : извлечено точно (доверие 1) [F9786780] (AR v2)Трек 6 : извлечено точно (доверие 1) [883E2D9C] (AR v2)Трек 7 : извлечено точно (доверие 1) [B9E8A19A] (AR v2)Трек 8 : извлечено точно (доверие 1) [9002B15A] (AR v2)Трек 9 : извлечено точно (доверие 1) [48A11CBA] (AR v2)Трек 10 : извлечено точно (доверие 1) [06AF5E0E] (AR v2)Трек 11 : извлечено точно (доверие 1) [9756DCF5] (AR v2)Трек 12 : извлечено точно (доверие 1) [A255D427] (AR v2)Трек 13 : извлечено точно (доверие 1) [1548F0C0] (AR v2)Трек 14 : извлечено точно (доверие 1) [E9056C10] (AR v2)Трек 15 : извлечено точно (доверие 1) [96D63D77] (AR v2)Трек 16 : извлечено точно (доверие 1) [EE2C5BC5] (AR v2)Трек 17 : извлечено точно (доверие 1) [D934E9FF] (AR v2)Трек 18 : извлечено точно (доверие 1) [33C4519E] (AR v2)Трек 19 : извлечено точно (доверие 1) [242EB350] (AR v2)Трек 20 : извлечено точно (доверие 1) [556E4919] (AR v2)

Все треки извлечены точно

Конец отчёта

---- CUETools DB Plugin V2.1.3

[CTDB TOCID: H2EW10QuT2SrG9Jb7lq0iN6rRu4-] found, Submit result: already submitted[59f4ae99] (5/5) Accurately ripped

==== Контрольная сумма отчёта B7CE4C5825EE71BC16E452408F0153564E4C5C513C57089121643325F18D9296 ====
VINCE GIORDANO & THE NIGHTHAWKS:

Andy Stein - violin
Michael Ponella - trumpet
Jon-Erik Kellso - trumpet
Jim Fryer - trombone
Dan Block - reeds
Mark Lopeman - reeds
Dan Levinson - reeds
Peter Yarin - piano
Ken Salvo - banjo
Arnie Kinsella - drums
Vince Giordano - tuba/bass sax/arranger
Belinda Whitney - violin
Meg Okura - violin
Paul Woodiel - violin
Cenovia Cummings - violin
Antoine Silverman - violin
Jill Jaffe - viola
Mairi Dorman-Phaneuf - cello
Andy York - guitar
Nathan Botts - trumpet
Harvey Tibbs - trombone
Noah Bless - trombone
Matt Musselman - trombone
Chuck Wilson - reeds
Peter R. Anderson - reeds
Will R. Anderson - reeds
Jack Stuckey - reeds
Joe Saylor - drums
Rob Garica - drums

Carol Hughes, Earl Norman


Трекер:  [ 14-Дек-2013 21:44 ]

  

Скачать .torrent

Размер .torrent файла 15 KB


Размер: 367 MB
Хэш (hash) релиза: 42c59c96c07f6085c25bd117cf16522ac33297bc

Торренты, похожие на Подпольная империя Boardwalk Empire скачать торрент

Форум Название Автор Размер S L Добавлен
Саундтреки к фильмам и мультфильмам (mp3) ·· (Soundtrack) Подпольная Империя / Boardwalk Empire (Boardwalk Empire Vol.2 Original Television Soundtrack (Deluxe Edition) (2013)) - 2013, MP3, 320 kbps Galfimbul 160917919153 MB 0 0 1383424764

23:39

2-Ноя-13

Саундтреки к фильмам и мультфильмам (lossless) ·· (Soundtrack) Подпольная империя / Boardwalk Empire (Volume 3) - 2014, FLAC (tracks), lossless Galfimbul 816982543779 MB 0 0 1417076464

11:21

27-Ноя-14

bot

Топик был перенесен в форум Саундтреки к фильмам и мультфильмам (lossless)

Перенес Galfimbul

Хотите добавить комментарий к записи скачать торрент Подпольная империя Boardwalk Empire

!Обратная связь