Скачать через торрент музыку Грязь Filth бесплатно без регистрации torrent

Если у вас наблюдаются проблемы со скриншотами, переходом по ссылками, скачиванием торрентов - проблемы в блокировщике рекламы AdBlock. #хорошегоДня!


Статистика раздачи
Размер:  292 MB   |    Зарегистрирован:  4 года   |    .torrent скачан:  41 раз   |   
Раздают:  1  
   
Загрузка...
 
Автор Сообщение

Galfimbul

avatar Galfimbul


Грязь - Filth

Жанр: Score
Композитор: Clint Mansell
Год выпуска диска: 2013
Год выпуска фильма: 2013
Страна-производитель диска: E.U.
Издатель (лейбл): Black Records
Номер по каталогу: CMCDP002
Аудиокодек: FLAC (*.flac)
Тип рипа: tracks+.cue
Битрейт аудио: lossless
Продолжительность: 00:47:09
Источник: скачано с
сайт-источник/ник/другое: What.cd (neuroin)
Наличие сканов в содержимом раздачи: да

Треклист:
01. Winter Wonderland (02:11)
02. DS Bruce Robertson (02:06)
03. The Games (02:01)
04. Poliswork (03:46)
05. Love is Cruel (03:52)
06. Reeperbahn Madness (03:26)
07. Home is the Darkness (03:40)
08. My Name is Frank Sidebottom (03:12)
09. Robbo Turns Off the Gas (05:35)
10. Smokey Bacon & a Kiss Goodnight (02:16)
11. Same Rules Apply (15:12)
Exact Audio Copy V1.0 beta 3 from 29. August 2011

EAC extraction logfile from 13. November 2013, 3:57

Clint Mansell / Filth

Used drive : HL-DT-STDVD-RAM GH22LP21 Adapter: 0 ID: 0

Read mode : SecureUtilize accurate stream : YesDefeat audio cache : YesMake use of C2 pointers : No

Read offset correction : 102Overread into Lead-In and Lead-Out : NoFill up missing offset samples with silence : YesDelete leading and trailing silent blocks : NoNull samples used in CRC calculations : YesUsed interface : Native Win32 interface for Win NT & 2000Gap handling : Appended to previous track

Used output format : User Defined EncoderSelected bitrate : 128 kBit/sQuality : HighAdd ID3 tag : NoCommand line compressor : C:\Program Files\Exact Audio Copy\Flac\flac.exeAdditional command line options : -8 -V -T "ARTIST=%artist%" -T "TITLE=%title%" -T "ALBUM=%albumtitle%" -T "DATE=%year%" -T "TRACKNUMBER=%tracknr%" -T "GENRE=%genre%" -T "PERFORMER=%albuminterpret%" -T "COMPOSER=%composer%" %haslyrics%--tag-from-file=LYRICS="%lyricsfile%"%haslyrics% -T "ALBUMARTIST=%albumartist%" -T "ALBUM ARTIST=%albumartist%" -T "DISCNUMBER=%cdnumber%" -T "TOTALDISCS=%totalcds%" -T "TOTALTRACKS=%numtracks%" -T "COMMENT=%comment%" %source% -o %dest%

TOC of the extracted CD

Track | Start | Length | Start sector | End sector --------------------------------------------------------- 1 | 0:00.00 | 2:10.69 | 0 | 9818 2 | 2:10.69 | 2:05.52 | 9819 | 19245 3 | 4:16.46 | 2:00.67 | 19246 | 28312 4 | 6:17.38 | 3:45.61 | 28313 | 45248 5 | 10:03.24 | 3:52.35 | 45249 | 62683 6 | 13:55.59 | 3:25.39 | 62684 | 78097 7 | 17:21.23 | 3:39.39 | 78098 | 94561 8 | 21:00.62 | 3:11.41 | 94562 | 108927 9 | 24:12.28 | 5:35.35 | 108928 | 134087 10 | 29:47.63 | 2:16.19 | 134088 | 144306 11 | 32:04.07 | 15:11.74 | 144307 | 212705

Track 1

Filename C:\Music04_moviez\F\Filth (2013, FLAC) - Clint Mansell\01 - Winter Wonderland.wav

Pre-gap length 0:00:02.00

Peak level 96.6 % Extraction speed 1.3 X Track quality 100.0 % Test CRC 60B2DD09 Copy CRC 60B2DD09 Track not present in AccurateRip database Copy OK

Track 2

Filename C:\Music04_moviez\F\Filth (2013, FLAC) - Clint Mansell\02 - DS Bruce Robertson.wav

Peak level 96.6 % Extraction speed 1.4 X Track quality 100.0 % Test CRC 994108AA Copy CRC 994108AA Track not present in AccurateRip database Copy OK

Track 3

Filename C:\Music04_moviez\F\Filth (2013, FLAC) - Clint Mansell\03 - The Games.wav

Peak level 74.1 % Extraction speed 1.5 X Track quality 100.0 % Test CRC 4A55C7B6 Copy CRC 4A55C7B6 Track not present in AccurateRip database Copy OK

Track 4

Filename C:\Music04_moviez\F\Filth (2013, FLAC) - Clint Mansell\04 - Poliswork.wav

Peak level 74.7 % Extraction speed 1.8 X Track quality 100.0 % Test CRC ED126797 Copy CRC ED126797 Track not present in AccurateRip database Copy OK

Track 5

Filename C:\Music04_moviez\F\Filth (2013, FLAC) - Clint Mansell\05 - Love is Cruel.wav

Peak level 96.6 % Extraction speed 1.9 X Track quality 100.0 % Test CRC 56469802 Copy CRC 56469802 Track not present in AccurateRip database Copy OK

Track 6

Filename C:\Music04_moviez\F\Filth (2013, FLAC) - Clint Mansell\06 - Reeperbahn Madness.wav

Peak level 96.6 % Extraction speed 1.8 X Track quality 99.9 % Test CRC 05393118 Copy CRC 05393118 Track not present in AccurateRip database Copy OK

Track 7

Filename C:\Music04_moviez\F\Filth (2013, FLAC) - Clint Mansell\07 - Home is the Darkness.wav

Peak level 96.6 % Extraction speed 2.2 X Track quality 100.0 % Test CRC 2629C9E3 Copy CRC 2629C9E3 Track not present in AccurateRip database Copy OK

Track 8

Filename C:\Music04_moviez\F\Filth (2013, FLAC) - Clint Mansell\08 - My Name is Frank Sidebottom.wav

Peak level 96.6 % Extraction speed 1.9 X Track quality 99.9 % Test CRC E125AFE6 Copy CRC E125AFE6 Track not present in AccurateRip database Copy OK

Track 9

Filename C:\Music04_moviez\F\Filth (2013, FLAC) - Clint Mansell\09 - Robbo Turns Off the Gas.wav

Peak level 96.6 % Extraction speed 2.5 X Track quality 100.0 % Test CRC 60017024 Copy CRC 60017024 Track not present in AccurateRip database Copy OK

Track 10

Filename C:\Music04_moviez\F\Filth (2013, FLAC) - Clint Mansell\10 - Smokey Bacon & a Kiss Goodnight.wav

Peak level 33.4 % Extraction speed 2.3 X Track quality 100.0 % Test CRC 998B7837 Copy CRC 998B7837 Track not present in AccurateRip database Copy OK

Track 11

Filename C:\Music04_moviez\F\Filth (2013, FLAC) - Clint Mansell\11 - Same Rules Apply.wav

Peak level 96.6 % Extraction speed 2.9 X Track quality 99.9 % Test CRC EAA7F4E6 Copy CRC EAA7F4E6 Track not present in AccurateRip database Copy OK

None of the tracks are present in the AccurateRip database

No errors occurred

End of status report

---- CUETools DB Plugin V2.1.3

[CTDB TOCID: RAA2viLQC1IH1EiMwqY6_NI9Am4-] disk not present in database, Submit result: RAA2viLQC1IH1EiMwqY6_NI9Am4- has been uploaded

==== Log checksum C604830AF287DFC16FC3DB7BAF5E6A014CA037263E8CC43508EFC97C54A38614 ====
REM GENRE SoundtrackREM DATE 2013REM DISCID 930B140BREM COMMENT "ExactAudioCopy v1.0b3"PERFORMER "Clint Mansell"TITLE "Filth"FILE "01 - Winter Wonderland.wav" WAVE TRACK 01 AUDIO TITLE "Winter Wonderland" PERFORMER "Clint Mansell" FLAGS DCP INDEX 01 00:00:00FILE "02 - DS Bruce Robertson.wav" WAVE TRACK 02 AUDIO TITLE "DS Bruce Robertson" PERFORMER "Clint Mansell" FLAGS DCP INDEX 01 00:00:00FILE "03 - The Games.wav" WAVE TRACK 03 AUDIO TITLE "The Games" PERFORMER "Clint Mansell" FLAGS DCP INDEX 01 00:00:00FILE "04 - Poliswork.wav" WAVE TRACK 04 AUDIO TITLE "Poliswork" PERFORMER "Clint Mansell" FLAGS DCP INDEX 01 00:00:00FILE "05 - Love is Cruel.wav" WAVE TRACK 05 AUDIO TITLE "Love is Cruel" PERFORMER "Clint Mansell" FLAGS DCP INDEX 01 00:00:00FILE "06 - Reeperbahn Madness.wav" WAVE TRACK 06 AUDIO TITLE "Reeperbahn Madness" PERFORMER "Clint Mansell" FLAGS DCP INDEX 01 00:00:00FILE "07 - Home is the Darkness.wav" WAVE TRACK 07 AUDIO TITLE "Home is the Darkness" PERFORMER "Clint Mansell" FLAGS DCP INDEX 01 00:00:00FILE "08 - My Name is Frank Sidebottom.wav" WAVE TRACK 08 AUDIO TITLE "My Name is Frank Sidebottom" PERFORMER "Clint Mansell" FLAGS DCP INDEX 01 00:00:00FILE "09 - Robbo Turns Off the Gas.wav" WAVE TRACK 09 AUDIO TITLE "Robbo Turns Off the Gas" PERFORMER "Clint Mansell" FLAGS DCP INDEX 01 00:00:00FILE "10 - Smokey Bacon & a Kiss Goodnight.wav" WAVE TRACK 10 AUDIO TITLE "Smokey Bacon & a Kiss Goodnight" PERFORMER "Clint Mansell" FLAGS DCP INDEX 01 00:00:00FILE "11 - Same Rules Apply.wav" WAVE TRACK 11 AUDIO TITLE "Same Rules Apply" PERFORMER "Clint Mansell" FLAGS DCP INDEX 01 00:00:00


Трекер:  [ 14-Дек-2013 21:43 ]

  

Скачать .torrent

Размер .torrent файла 4 KB


Размер: 292 MB
Хэш (hash) релиза: fa9db91724627d3f53b32762e0f7dd971fe9035e

Торренты, похожие на Грязь Filth скачать торрент

Форум Название Автор Размер S L Добавлен
Саундтреки к фильмам и мультфильмам (mp3) ·· (Score) Грязь / Filth (Clint Mansell) - 2013, MP3, 320 kbps Galfimbul 113553442108 MB 0 0 1379991068

05:51

24-Сен-13

Саундтреки к фильмам и мультфильмам (lossless) ·· (Soundtrack) Грязь (2013) / Filth (2013) (Various Artists - Filth [2013] [Soundtrack] web) (Various Artists) - 2013, FLAC (tracks), lossless Galfimbul 182861080174 MB 0 0 1446060789

22:33

28-Окт-15

bot

Топик был перенесен в форум Саундтреки к фильмам и мультфильмам (lossless)

Перенес Galfimbul

Хотите добавить комментарий к записи скачать торрент Грязь Filth

!Обратная связь