Скачать через торрент музыку Конгресс Le Congrès бесплатно без регистрации torrent

Если у вас наблюдаются проблемы со скриншотами, переходом по ссылками, скачиванием торрентов - проблемы в блокировщике рекламы AdBlock. #хорошегоДня!


Статистика раздачи
Размер:  285 MB   |    Зарегистрирован:  4 года   |    .torrent скачан:  31 раз   |   
Раздают:  1  
   
Загрузка...
 
Автор Сообщение

Galfimbul

avatar Galfimbul


Конгресс / Le Congrès
Жанр: Score
Композитор: Max Richter
Год выпуска диска: 2013
Производитель диска: France
Издатель (лейбл): Milan Music
Номер по каталогу: 399 489-2
Аудиокодек: FLAC (*.flac)
Тип рипа: tracks+.cue
Битрейт аудио: lossless
Продолжительность: 00:53:17
Источник: what.cd / neuroin
Наличие сканов в содержимом раздачи: да, 600 dpi PNG
1. Beginning and Ending
2. Trio in E-Flat Major, D. 929: Andante con moto (by Franz Schubert)
3. Winterreise
4. On The Road To Abrahama 1
5. In Her Reflection
6. On The Road To Abrahama 2
7. All Your Joys, All Your Pain
8. In The Cosmic Lobby
9. Out Of The Dark
10. The Rebel Attack
11. Still Dreaming, Still Travelling
12. Forever Young (feat. Robin Wright)
13. Nocturne in C-Sharp Minor, Op. 27 No. 1 (by Frédéric Chopin)
14. In The Garden Of Cosmic Speculation
15. Badass Agent Robin
16. She Finds The Child
17. If It Be Your Will (feat. Robin Wright)
Exact Audio Copy V1.0 beta 3 from 29. August 2011

EAC extraction logfile from 4. December 2013, 0:39

Max Richter / Le Congrès

Used drive : HL-DT-STDVD-RAM GH22LP21 Adapter: 0 ID: 0

Read mode : SecureUtilize accurate stream : YesDefeat audio cache : YesMake use of C2 pointers : No

Read offset correction : 102Overread into Lead-In and Lead-Out : NoFill up missing offset samples with silence : YesDelete leading and trailing silent blocks : NoNull samples used in CRC calculations : YesUsed interface : Native Win32 interface for Win NT & 2000Gap handling : Appended to previous track

Used output format : User Defined EncoderSelected bitrate : 128 kBit/sQuality : HighAdd ID3 tag : NoCommand line compressor : C:\Program Files\Exact Audio Copy\Flac\flac.exeAdditional command line options : -8 -V -T "ARTIST=%artist%" -T "TITLE=%title%" -T "ALBUM=%albumtitle%" -T "DATE=%year%"-T "TRACKNUMBER=%tracknr%" -T "GENRE=%genre%" -T "PERFORMER=%albuminterpret%" -T "COMPOSER=%composer%" %haslyrics%--tag-from-file=LYRICS="%lyricsfile%"%haslyrics%-T "ALBUMARTIST=%albumartist%" -T "ALBUM ARTIST=%albumartist%" -T "DISCNUMBER=%cdnumber%" -T "TOTALDISCS=%totalcds%"-T "TOTALTRACKS=%numtracks%" -T "COMMENT=%comment%" %source% -o %dest%

TOC of the extracted CD

Track | Start | Length | Start sector | End sector --------------------------------------------------------- 1 | 0:00.00 | 4:54.57 | 0 | 22106 2 | 4:54.57 | 4:17.55 | 22107 | 41436 3 | 9:12.37 | 2:09.01 | 41437 | 51112 4 | 11:21.38 | 4:14.26 | 51113 | 70188 5 | 15:35.64 | 1:18.52 | 70189 | 76090 6 | 16:54.41 | 1:15.64 | 76091 | 81779 7 | 18:10.30 | 4:52.31 | 81780 | 103710 8 | 23:02.61 | 2:19.26 | 103711 | 114161 9 | 25:22.12 | 5:03.49 | 114162 | 136935 10 | 30:25.61 | 3:14.31 | 136936 | 151516 11 | 33:40.17 | 1:30.49 | 151517 | 158315 12 | 35:10.66 | 4:03.09 | 158316 | 176549 13 | 39:14.00 | 1:15.09 | 176550 | 182183 14 | 40:29.09 | 3:55.02 | 182184 | 199810 15 | 44:24.11 | 1:03.00 | 199811 | 204535 16 | 45:27.11 | 3:39.13 | 204536 | 220973 17 | 49:06.24 | 4:10.72 | 220974 | 239795

Track 1

Filename C:\Music04_moviez\C\Le Congrès (2013, FLAC) - Max Richter\01 - Max Richter - Beginning and Ending.wav

Pre-gap length 0:00:02.00

Peak level 98.8 % Extraction speed 1.5 X Track quality 100.0 % Test CRC 6EFC72BA Copy CRC 6EFC72BA Track not present in AccurateRip database Copy OK

Track 2

Filename C:\Music04_moviez\C\Le Congrès (2013, FLAC) - Max Richter\02 - Franz Schubert - Andante con Moto from Trio in E-Flat Major, D. 929.wav

Peak level 71.1 % Extraction speed 1.7 X Track quality 100.0 % Test CRC 0AB29A6C Copy CRC 0AB29A6C Track not present in AccurateRip database Copy OK

Track 3

Filename C:\Music04_moviez\C\Le Congrès (2013, FLAC) - Max Richter\03 - Max Richter - Winterreise.wav

Peak level 98.8 % Extraction speed 1.6 X Track quality 100.0 % Test CRC BB20EE66 Copy CRC BB20EE66 Track not present in AccurateRip database Copy OK

Track 4

Filename C:\Music04_moviez\C\Le Congrès (2013, FLAC) - Max Richter\04 - Max Richter - On the Road to Abrahama 1.wav

Peak level 98.8 % Extraction speed 1.9 X Track quality 100.0 % Test CRC CBAC41DF Copy CRC CBAC41DF Track not present in AccurateRip database Copy OK

Track 5

Filename C:\Music04_moviez\C\Le Congrès (2013, FLAC) - Max Richter\05 - Max Richter - In Her Reflection.wav

Peak level 53.1 % Extraction speed 1.2 X Track quality 99.8 % Test CRC FDD75004 Copy CRC FDD75004 Track not present in AccurateRip database Copy OK

Track 6

Filename C:\Music04_moviez\C\Le Congrès (2013, FLAC) - Max Richter\06 - Max Richter - On the Road to Abrahama 2.wav

Peak level 98.8 % Extraction speed 1.6 X Track quality 100.0 % Test CRC 994A18FB Copy CRC 994A18FB Track not present in AccurateRip database Copy OK

Track 7

Filename C:\Music04_moviez\C\Le Congrès (2013, FLAC) - Max Richter\07 - Max Richter - All Your Joys, All Your Pain.wav

Peak level 98.8 % Extraction speed 2.2 X Track quality 100.0 % Test CRC F8299F07 Copy CRC F8299F07 Track not present in AccurateRip database Copy OK

Track 8

Filename C:\Music04_moviez\C\Le Congrès (2013, FLAC) - Max Richter\08 - Max Richter - In the Cosmic Lobby.wav

Peak level 47.1 % Extraction speed 2.0 X Track quality 100.0 % Test CRC 4D44ED54 Copy CRC 4D44ED54 Track not present in AccurateRip database Copy OK

Track 9

Filename C:\Music04_moviez\C\Le Congrès (2013, FLAC) - Max Richter\09 - Max Richter - Out of the Dark.wav

Pre-gap length 0:00:00.01

Peak level 98.8 % Extraction speed 2.4 X Track quality 100.0 % Test CRC 1723DC4A Copy CRC 1723DC4A Track not present in AccurateRip database Copy OK

Track 10

Filename C:\Music04_moviez\C\Le Congrès (2013, FLAC) - Max Richter\10 - Max Richter - The Rebel Attack.wav

Peak level 98.8 % Extraction speed 2.4 X Track quality 100.0 % Test CRC 1E2D6076 Copy CRC 1E2D6076 Track not present in AccurateRip database Copy OK

Track 11

Filename C:\Music04_moviez\C\Le Congrès (2013, FLAC) - Max Richter\11 - Max Richter - Still Dreaming, Still Travelling.wav

Peak level 81.9 % Extraction speed 1.6 X Track quality 99.8 % Test CRC D852D17C Copy CRC D852D17C Track not present in AccurateRip database Copy OK

Track 12

Filename C:\Music04_moviez\C\Le Congrès (2013, FLAC) - Max Richter\12 - Robin Wright - Forever Young.wav

Peak level 98.8 % Extraction speed 2.6 X Track quality 100.0 % Test CRC 3260C6CC Copy CRC 3260C6CC Track not present in AccurateRip database Copy OK

Track 13

Filename C:\Music04_moviez\C\Le Congrès (2013, FLAC) - Max Richter\13 - Frédéric Chopin - Nocturne Op. 27,1 in C# minor.wav

Peak level 68.4 % Extraction speed 2.0 X Track quality 100.0 % Test CRC 19AFA868 Copy CRC 19AFA868 Track not present in AccurateRip database Copy OK

Track 14

Filename C:\Music04_moviez\C\Le Congrès (2013, FLAC) - Max Richter\14 - Max Richter - In the Garden of Cosmic Speculation.wav

Peak level 98.8 % Extraction speed 2.4 X Track quality 99.9 % Test CRC 670F90A8 Copy CRC 670F90A8 Track not present in AccurateRip database Copy OK

Track 15

Filename C:\Music04_moviez\C\Le Congrès (2013, FLAC) - Max Richter\15 - Max Richter - Badass Agent Robin.wav

Peak level 98.8 % Extraction speed 1.9 X Track quality 100.0 % Test CRC FBDCE9CD Copy CRC FBDCE9CD Track not present in AccurateRip database Copy OK

Track 16

Filename C:\Music04_moviez\C\Le Congrès (2013, FLAC) - Max Richter\16 - Max Richter - She Finds the Child.wav

Peak level 98.8 % Extraction speed 2.8 X Track quality 100.0 % Test CRC 4E83668E Copy CRC 4E83668E Track not present in AccurateRip database Copy OK

Track 17

Filename C:\Music04_moviez\C\Le Congrès (2013, FLAC) - Max Richter\17 - Robin Wright - If It Be Your Will.wav

Peak level 98.8 % Extraction speed 2.9 X Track quality 100.0 % Test CRC 7AC64CA6 Copy CRC 7AC64CA6 Track not present in AccurateRip database Copy OK

None of the tracks are present in the AccurateRip database

No errors occurred

End of status report

---- CUETools DB Plugin V2.1.3

[CTDB TOCID: z52OISBgaMgXYJATk6H1JeF4ulg-] disk not present in database, Submit result: z52OISBgaMgXYJATk6H1JeF4ulg- has been uploaded

==== Log checksum 857BAD18ED9B9F095936A58E7E02A7E1AFDBFED0999E5911235B7FBE8FD69524 ====
REM GENRE SoundtrackREM DATE 2013REM DISCID EC0C7D11REM COMMENT "ExactAudioCopy v1.0b3"PERFORMER "Max Richter"TITLE "Le Congrès"FILE "01 - Max Richter - Beginning and Ending.wav" WAVE TRACK 01 AUDIO TITLE "Beginning and Ending" PERFORMER "Max Richter" INDEX 01 00:00:00FILE "02 - Franz Schubert - Andante con Moto from Trio in E-Flat Major, D. 929.wav" WAVE TRACK 02 AUDIO TITLE "Andante con Moto from Trio in E-Flat Major, D. 929" PERFORMER "Franz Schubert" INDEX 01 00:00:00FILE "03 - Max Richter - Winterreise.wav" WAVE TRACK 03 AUDIO TITLE "Winterreise" PERFORMER "Max Richter" INDEX 01 00:00:00FILE "04 - Max Richter - On the Road to Abrahama 1.wav" WAVE TRACK 04 AUDIO TITLE "On the Road to Abrahama 1" PERFORMER "Max Richter" INDEX 01 00:00:00FILE "05 - Max Richter - In Her Reflection.wav" WAVE TRACK 05 AUDIO TITLE "In Her Reflection" PERFORMER "Max Richter" INDEX 01 00:00:00FILE "06 - Max Richter - On the Road to Abrahama 2.wav" WAVE TRACK 06 AUDIO TITLE "On the Road to Abrahama 2" PERFORMER "Max Richter" INDEX 01 00:00:00FILE "07 - Max Richter - All Your Joys, All Your Pain.wav" WAVE TRACK 07 AUDIO TITLE "All Your Joys, All Your Pain" PERFORMER "Max Richter" INDEX 01 00:00:00FILE "08 - Max Richter - In the Cosmic Lobby.wav" WAVE TRACK 08 AUDIO TITLE "In the Cosmic Lobby" PERFORMER "Max Richter" INDEX 01 00:00:00 TRACK 09 AUDIO TITLE "Out of the Dark" PERFORMER "Max Richter" INDEX 00 02:19:25FILE "09 - Max Richter - Out of the Dark.wav" WAVE INDEX 01 00:00:00FILE "10 - Max Richter - The Rebel Attack.wav" WAVE TRACK 10 AUDIO TITLE "The Rebel Attack" PERFORMER "Max Richter" INDEX 01 00:00:00FILE "11 - Max Richter - Still Dreaming, Still Travelling.wav" WAVE TRACK 11 AUDIO TITLE "Still Dreaming, Still Travelling" PERFORMER "Max Richter" INDEX 01 00:00:00FILE "12 - Robin Wright - Forever Young.wav" WAVE TRACK 12 AUDIO TITLE "Forever Young" PERFORMER "Robin Wright" INDEX 01 00:00:00FILE "13 - Frederic Chopin - Nocturne Op. 27,1 in C# minor.wav" WAVE TRACK 13 AUDIO TITLE "Nocturne Op. 27/1 in C# minor" PERFORMER "Frédéric Chopin" INDEX 01 00:00:00FILE "14 - Max Richter - In the Garden of Cosmic Speculation.wav" WAVE TRACK 14 AUDIO TITLE "In the Garden of Cosmic Speculation" PERFORMER "Max Richter" INDEX 01 00:00:00FILE "15 - Max Richter - Badass Agent Robin.wav" WAVE TRACK 15 AUDIO TITLE "Badass Agent Robin" PERFORMER "Max Richter" INDEX 01 00:00:00FILE "16 - Max Richter - She Finds the Child.wav" WAVE TRACK 16 AUDIO TITLE "She Finds the Child" PERFORMER "Max Richter" INDEX 01 00:00:00FILE "17 - Robin Wright - If It Be Your Will.wav" WAVE TRACK 17 AUDIO TITLE "If It Be Your Will" PERFORMER "Robin Wright" INDEX 01 00:00:00


Трекер:  [ 14-Дек-2013 21:43 ]

  

Скачать .torrent

Размер .torrent файла 13 KB


Размер: 285 MB
Хэш (hash) релиза: 06f00cebff1c1b17af9f181c6c693b165ae4f293

bot

Топик был перенесен в форум Саундтреки к фильмам и мультфильмам (lossless)

Перенес Galfimbul

Хотите добавить комментарий к записи скачать торрент Конгресс Le Congrès

!Обратная связь