Скачать через торрент музыку Блудливая Калифорния Californication: Season 4 - 2011, FLAC бесплатно без регистрации torrent

Если у вас наблюдаются проблемы со скриншотами, переходом по ссылками, скачиванием торрентов - проблемы в блокировщике рекламы AdBlock. #хорошегоДня!


Статистика раздачи
Размер:  320 MB   |    Зарегистрирован:  6 лет 10 месяцев   |    .torrent скачан:  577 раз   |   
Раздают:  1  
   
Загрузка...
 
Автор Сообщение

Mos

avatar Mos


Блудливая Калифорния / Californication: Season 4

Жанр: Soundtrack
Год выпуска диска: 2011
Год выпуска фильма: 2007-
Страна-производитель диска: USA
Аудио кодек: FLAC (*.flac)
Тип рипа: tracks+.cue
Битрейт аудио: lossless
Продолжительность: 47:25
Источник: lztr.us
Треклист:
[01:44] 01. Shooter Jennings & Hierophant - F**k You (I'm Famous)
[03:17] 02. Eagles of Death Metal - Stuck in the Metal
[03:25] 03. Better Than Ezra - So Alive
[03:30] 04. Queens of Dogtown - Would?
[04:57] 05. My Life With the Thrill Kill Kult - Sex On Wheelz
[01:30] 06. Queens of Dogtown - Last Caress
[04:11] 07. Monster Magnet vs. Adrian Young - Mirror People
[04:12] 08. Cracker - Turn On Tune In Drop Out with Me
[05:18] 09. Queens of Dogtown - I Remember You
[05:24] 10. The Soundtrack of Our Lives - Second Life Replay
[02:36] 11. Warren Zevon - Wanted Dead or Alive
[04:26] 12. Gregory Alan Isakov - If I Go, I'm Goin'
[02:49] 13. Tommy Lee - Home Sweet Home
 
Exact Audio Copy V0.99 prebeta 5 from 4. May 2009

EAC extraction logfile from 16. January 2011, 10:04

Various / Californication Soundtrack: Season 4

Used drive : Optiarc DVD RW AD-7241S Adapter: 0 ID: 1

Read mode : SecureUtilize accurate stream : YesDefeat audio cache : YesMake use of C2 pointers : No

Read offset correction : 48Overread into Lead-In and Lead-Out : NoFill up missing offset samples with silence : YesDelete leading and trailing silent blocks : NoNull samples used in CRC calculations : NoUsed interface : Native Win32 interface for Win NT & 2000Gap handling : Appended to previous track

Used output format : User Defined EncoderSelected bitrate : 768 kBit/sQuality : HighAdd ID3 tag : NoCommand line compressor : C:\Program Files (x86)\Exact Audio Copy\FLAC\FLAC.EXEAdditional command line options : -V -8 -T "artist=%a" -T "title=%t" -T "album=%g" -T "date=%y" -T "tracknumber=%n" -T "genre=%m" %s

TOC of the extracted CD

Track | Start | Length | Start sector | End sector --------------------------------------------------------- 1 | 0:00.00 | 1:44.59 | 0 | 7858 2 | 1:44.59 | 3:17.34 | 7859 | 22667 3 | 5:02.18 | 3:25.38 | 22668 | 38080 4 | 8:27.56 | 3:30.69 | 38081 | 53899 5 | 11:58.50 | 4:57.73 | 53900 | 76247 6 | 16:56.48 | 1:30.07 | 76248 | 83004 7 | 18:26.55 | 4:11.16 | 83005 | 101845 8 | 22:37.71 | 4:12.22 | 101846 | 120767 9 | 26:50.18 | 5:18.48 | 120768 | 144665 10 | 32:08.66 | 5:24.31 | 144666 | 168996 11 | 37:33.22 | 2:36.69 | 168997 | 180765 12 | 40:10.16 | 4:26.05 | 180766 | 200720 13 | 44:36.21 | 2:49.08 | 200721 | 213403

Track 1

Filename G:\EAC-Rips\[2010] VA - Californication Soundtrack- Season 4[FLAC]\01_-_Fxxk_You_(I'm_Famous)_-_Shooter_Jennings_&_Hierophant.wav

Pre-gap length 0:00:02.00

Peak level 98.8 % Track quality 100.0 % Test CRC 5EB0E6FD Copy CRC 5EB0E6FD Track not present in AccurateRip database Copy OK

Track 2

Filename G:\EAC-Rips\[2010] VA - Californication Soundtrack- Season 4[FLAC]\02_-_Stuck_in_the_Metal_-_Eagles_of_Death_Metal.wav

Pre-gap length 0:00:01.03

Peak level 98.8 % Track quality 100.0 % Test CRC A62B07D7 Copy CRC A62B07D7 Track not present in AccurateRip database Copy OK

Track 3

Filename G:\EAC-Rips\[2010] VA - Californication Soundtrack- Season 4[FLAC]\03_-_So_Alive_-_Better_Than_Ezra.wav

Pre-gap length 0:00:00.47

Peak level 98.8 % Track quality 100.0 % Test CRC AE48AFF2 Copy CRC AE48AFF2 Track not present in AccurateRip database Copy OK

Track 4

Filename G:\EAC-Rips\[2010] VA - Californication Soundtrack- Season 4[FLAC]\04_-_Would__-_Queens_of_Dogtown.wav

Pre-gap length 0:00:01.32

Peak level 98.9 % Track quality 100.0 % Test CRC A0D3CADE Copy CRC A0D3CADE Track not present in AccurateRip database Copy OK

Track 5

Filename G:\EAC-Rips\[2010] VA - Californication Soundtrack- Season 4[FLAC]\05_-_Sex_On_Wheelz_-_My_Life_With_the_Thrill_Kill_Kult.wav

Pre-gap length 0:00:01.01

Peak level 98.9 % Track quality 100.0 % Test CRC CFAAFEB0 Copy CRC CFAAFEB0 Track not present in AccurateRip database Copy OK

Track 6

Filename G:\EAC-Rips\[2010] VA - Californication Soundtrack- Season 4[FLAC]\06_-_Last_Caress_-_Queens_of_Dogtown.wav

Pre-gap length 0:00:01.03

Peak level 98.9 % Track quality 100.0 % Test CRC 57DE24B2 Copy CRC 57DE24B2 Track not present in AccurateRip database Copy OK

Track 7

Filename G:\EAC-Rips\[2010] VA - Californication Soundtrack- Season 4[FLAC]\07_-_Mirror_People_-_Monster_Magnet_vs._Adrian_Young.wav

Pre-gap length 0:00:01.20

Peak level 98.8 % Track quality 100.0 % Test CRC F33F4C36 Copy CRC F33F4C36 Track not present in AccurateRip database Copy OK

Track 8

Filename G:\EAC-Rips\[2010] VA - Californication Soundtrack- Season 4[FLAC]\08_-_Turn_On_Tune_In_Drop_Out_with_Me_-_Cracker.wav

Pre-gap length 0:00:01.74

Peak level 98.8 % Track quality 100.0 % Test CRC F9D3EFDF Copy CRC F9D3EFDF Track not present in AccurateRip database Copy OK

Track 9

Filename G:\EAC-Rips\[2010] VA - Californication Soundtrack- Season 4[FLAC]\09_-_I_Remember_You_-_Queens_of_Dogtown.wav

Pre-gap length 0:00:00.62

Peak level 98.8 % Track quality 100.0 % Test CRC 175D25AC Copy CRC 175D25AC Track not present in AccurateRip database Copy OK

Track 10

Filename G:\EAC-Rips\[2010] VA - Californication Soundtrack- Season 4[FLAC]\10_-_Second_Life_Replay_-_The_Soundtrack_of_Our_Lives.wav

Pre-gap length 0:00:00.26

Peak level 98.8 % Track quality 99.9 % Test CRC E9632EBB Copy CRC E9632EBB Track not present in AccurateRip database Copy OK

Track 11

Filename G:\EAC-Rips\[2010] VA - Californication Soundtrack- Season 4[FLAC]\11_-_Wanted_Dead_or_Alive_-_Warren_Zevon.wav

Pre-gap length 0:00:01.05

Peak level 98.9 % Track quality 100.0 % Test CRC BE527F6C Copy CRC BE527F6C Track not present in AccurateRip database Copy OK

Track 12

Filename G:\EAC-Rips\[2010] VA - Californication Soundtrack- Season 4[FLAC]\12_-_If_I_Go,_I'm_Goin'_-_Gregory_Alan_Isakov.wav

Pre-gap length 0:00:01.41

Peak level 98.8 % Track quality 100.0 % Test CRC 111C282B Copy CRC 111C282B Track not present in AccurateRip database Copy OK

Track 13

Filename G:\EAC-Rips\[2010] VA - Californication Soundtrack- Season 4[FLAC]\13_-_Home_Sweet_Home_-_Tommy_Lee.wav

Pre-gap length 0:00:01.48

Peak level 98.8 % Track quality 100.0 % Test CRC 4586C664 Copy CRC 4586C664 Track not present in AccurateRip database Copy OK

None of the tracks are present in the AccurateRip database

No errors occurred

End of status report
 
REM GENRE RockREM DATE 2010REM DISCID 920B1D0DREM COMMENT "ExactAudioCopy v0.99pb5"CATALOG 0856195002141PERFORMER "Various"TITLE "Californication Soundtrack: Season 4"FILE "01. Shooter Jennings & Hierophant - Fk You (I'm Famous).wav" WAVE TRACK 01 AUDIO TITLE "F**k You (I'm Famous)" PERFORMER "Shooter Jennings & Hierophant" ISRC US9SH1000029 INDEX 01 00:00:00 TRACK 02 AUDIO TITLE "Stuck in the Metal" PERFORMER "Eagles of Death Metal" ISRC US9SH1000030 INDEX 00 01:43:56FILE "02. Eagles of Death Metal - Stuck in the Metal.wav" WAVE INDEX 01 00:00:00 TRACK 03 AUDIO TITLE "So Alive" PERFORMER "Better Than Ezra" ISRC US9SH1000031 INDEX 00 03:16:62FILE "03. Better Than Ezra - So Alive.wav" WAVE INDEX 01 00:00:00 TRACK 04 AUDIO TITLE "Would?" PERFORMER "Queens of Dogtown" ISRC US9SH1000032 INDEX 00 03:24:06FILE "04. Queens of Dogtown - Would.wav" WAVE INDEX 01 00:00:00 TRACK 05 AUDIO TITLE "Sex On Wheelz" PERFORMER "My Life With the Thrill Kill Kult" ISRC US9SH1000033 INDEX 00 03:29:68FILE "05. My Life With the Thrill Kill Kult - Sex On Wheelz.wav" WAVE INDEX 01 00:00:00 TRACK 06 AUDIO TITLE "Last Caress" PERFORMER "Queens of Dogtown" ISRC US9SH1000034 INDEX 00 04:56:70FILE "06. Queens of Dogtown - Last Caress.wav" WAVE INDEX 01 00:00:00 TRACK 07 AUDIO TITLE "Mirror People" PERFORMER "Monster Magnet vs. Adrian Young" ISRC US9SH1000035 INDEX 00 01:28:62FILE "07. Monster Magnet vs. Adrian Young - Mirror People.wav" WAVE INDEX 01 00:00:00 TRACK 08 AUDIO TITLE "Turn On Tune In Drop Out with Me" PERFORMER "Cracker" ISRC US9SH1000036 INDEX 00 04:09:17FILE "08. Cracker - Turn On Tune In Drop Out with Me.wav" WAVE INDEX 01 00:00:00 TRACK 09 AUDIO TITLE "I Remember You" PERFORMER "Queens of Dogtown" ISRC US9SH1000037 INDEX 00 04:11:35FILE "09. Queens of Dogtown - I Remember You.wav" WAVE INDEX 01 00:00:00 TRACK 10 AUDIO TITLE "Second Life Replay" PERFORMER "The Soundtrack of Our Lives" ISRC US9SH1000041 INDEX 00 05:18:22FILE "10. The Soundtrack of Our Lives - Second Life Replay.wav" WAVE INDEX 01 00:00:00 TRACK 11 AUDIO TITLE "Wanted Dead or Alive" PERFORMER "Warren Zevon" ISRC US9SH1000038 INDEX 00 05:23:26FILE "11. Warren Zevon - Wanted Dead or Alive.wav" WAVE INDEX 01 00:00:00 TRACK 12 AUDIO TITLE "If I Go, I'm Goin'" PERFORMER "Gregory Alan Isakov" ISRC US9SH1000039 INDEX 00 02:35:28FILE "12. Gregory Alan Isakov - If I Go, I'm Goin'.wav" WAVE INDEX 01 00:00:00 TRACK 13 AUDIO TITLE "Home Sweet Home" PERFORMER "Tommy Lee" ISRC US9SH1000040 INDEX 00 04:24:32FILE "13. Tommy Lee - Home Sweet Home.wav" WAVE INDEX 01 00:00:00


Трекер:  [ 24-Янв-2011 07:54 ]

  

Скачать .torrent

Размер .torrent файла 14 KB


Размер: 320 MB
Хэш (hash) релиза: 7bb4dc6f9c5f2a576c2f7bb620db6dbde582cd81

Еще никто не оставлял запись к записи скачать торрент Блудливая Калифорния Californication: Season 4 - 2011, FLAC . Будь первым!

!Обратная связь