Скачать через торрент музыку Golana - Feather On The Wind - 2000, FLAC бесплатно без регистрации torrent

Если у вас наблюдаются проблемы со скриншотами, переходом по ссылками, скачиванием торрентов - проблемы в блокировщике рекламы AdBlock. #хорошегоДня!


Статистика раздачи
Размер:  261 MB   |    Зарегистрирован:  3 года 11 месяцев   |    .torrent скачан:  165 раз   |   
Раздают:  1  
   
Загрузка...
 
Автор Сообщение

Galfimbul

avatar Galfimbul


Golana - Feather On The Wind
Exact Audio Copy V0.99 prebeta 5 from 4. May 2009

EAC extraction logfile from 6. August 2010, 11:32

Golana / Feather On The Wind

Used drive : Optiarc DVD+-RW AD-7640S Adapter: 0 ID: 1

Read mode : SecureUtilize accurate stream : YesDefeat audio cache : YesMake use of C2 pointers : No

Read offset correction : 6Overread into Lead-In and Lead-Out : NoFill up missing offset samples with silence : YesDelete leading and trailing silent blocks : NoNull samples used in CRC calculations : YesUsed interface : Native Win32 interface for Win NT & 2000Gap handling : Appended to previous track

Used output format : User Defined EncoderSelected bitrate : 1024 kBit/sQuality : HighAdd ID3 tag : NoCommand line compressor : C:\Program Files (x86)\Exact Audio Copy\FLAC\FLAC.EXEAdditional command line options : -V -8 -T "artist=%a" -T "title=%t" -T "album=%g" -T "date=%y" -T "tracknumber=%n" -T "genre=%m" %s

TOC of the extracted CD

Track | Start | Length | Start sector | End sector --------------------------------------------------------- 1 | 0:00.00 | 4:52.00 | 0 | 21899 2 | 4:52.00 | 6:01.17 | 21900 | 48991 3 | 10:53.17 | 3:48.03 | 48992 | 66094 4 | 14:41.20 | 3:50.27 | 66095 | 83371 5 | 18:31.47 | 5:26.63 | 83372 | 107884 6 | 23:58.35 | 5:59.37 | 107885 | 134846 7 | 29:57.72 | 5:02.50 | 134847 | 157546 8 | 35:00.47 | 3:47.05 | 157547 | 174576 9 | 38:47.52 | 5:26.28 | 174577 | 199054 10 | 44:14.05 | 4:22.22 | 199055 | 218726 11 | 48:36.27 | 4:57.73 | 218727 | 241074

Track 1

Filename C:\FLAC RIPS\Feather On The Wind [FLAC]\01 - Closer To You.wav

Pre-gap length 0:00:02.00

Peak level 100.0 % Track quality 100.0 % Test CRC 53BD5E89 Copy CRC 53BD5E89 Cannot be verified as accurate (confidence 2) [768B1CE0], AccurateRip returned [655C3AEB] Copy OK

Track 2

Filename C:\FLAC RIPS\Feather On The Wind [FLAC]\02 - All Good Medicine.wav

Peak level 99.0 % Track quality 100.0 % Test CRC ADF5CBE1 Copy CRC ADF5CBE1 Track not present in AccurateRip database Copy OK

Track 3

Filename C:\FLAC RIPS\Feather On The Wind [FLAC]\03 - Allaluia.wav

Peak level 77.3 % Track quality 100.0 % Test CRC 7F840162 Copy CRC 7F840162 Cannot be verified as accurate (confidence 2) [3F71303B], AccurateRip returned [189C8B79] Copy OK

Track 4

Filename C:\FLAC RIPS\Feather On The Wind [FLAC]\04 - Mojava Morning.wav

Peak level 99.9 % Track quality 100.0 % Test CRC E6BB0233 Copy CRC E6BB0233 Track not present in AccurateRip database Copy OK

Track 5

Filename C:\FLAC RIPS\Feather On The Wind [FLAC]\05 - Soft Winds.wav

Pre-gap length 0:00:01.56

Peak level 98.2 % Track quality 100.0 % Test CRC 3D3D8544 Copy CRC 3D3D8544 Track not present in AccurateRip database Copy OK

Track 6

Filename C:\FLAC RIPS\Feather On The Wind [FLAC]\06 - Above The Sky.wav

Peak level 91.0 % Track quality 100.0 % Test CRC 4B88443C Copy CRC 4B88443C Track not present in AccurateRip database Copy OK

Track 7

Filename C:\FLAC RIPS\Feather On The Wind [FLAC]\07 - Grandfather's Way.wav

Pre-gap length 0:00:02.22

Peak level 100.0 % Track quality 100.0 % Test CRC 8AD9B86A Copy CRC 8AD9B86A Track not present in AccurateRip database Copy OK

Track 8

Filename C:\FLAC RIPS\Feather On The Wind [FLAC]\08 - Farewell (Donadagollvi).wav

Pre-gap length 0:00:01.56

Peak level 96.4 % Track quality 100.0 % Test CRC C2FA55E7 Copy CRC C2FA55E7 Track not present in AccurateRip database Copy OK

Track 9

Filename C:\FLAC RIPS\Feather On The Wind [FLAC]\09 - As Long As The Waters Run.wav

Pre-gap length 0:00:02.06

Peak level 100.0 % Track quality 100.0 % Test CRC 2FAABEEB Copy CRC 2FAABEEB Track not present in AccurateRip database Copy OK

Track 10

Filename C:\FLAC RIPS\Feather On The Wind [FLAC]\10 - Walks Alone Man.wav

Pre-gap length 0:00:01.13

Peak level 88.4 % Track quality 100.0 % Test CRC 88DF2394 Copy CRC 88DF2394 Track not present in AccurateRip database Copy OK

Track 11

Filename C:\FLAC RIPS\Feather On The Wind [FLAC]\11 - Feather On The Wind.wav

Pre-gap length 0:00:02.62

Peak level 95.4 % Track quality 100.0 % Test CRC 5C9F8926 Copy CRC 5C9F8926 Track not present in AccurateRip database Copy OK

2 track(s) could not be verified as accurate 9 track(s) not present in the AccurateRip database

No tracks could be verified as accurateYou may have a different pressing from the one(s) in the database

No errors occurred

End of status report
REM GENRE "New Age"REM DATE 2000REM DISCID 990C8E0BREM COMMENT "ExactAudioCopy v0.99pb5"PERFORMER "Golana"TITLE "Feather On The Wind"FILE "01 - Closer To You.flac" WAVE TRACK 01 AUDIO TITLE "Closer To You" PERFORMER "Golana" INDEX 01 00:00:00FILE "02 - All Good Medicine.flac" WAVE TRACK 02 AUDIO TITLE "All Good Medicine" PERFORMER "Golana" INDEX 01 00:00:00FILE "03 - Allaluia.flac" WAVE TRACK 03 AUDIO TITLE "Allaluia" PERFORMER "Golana" INDEX 01 00:00:00FILE "04 - Mojava Morning.flac" WAVE TRACK 04 AUDIO TITLE "Mojava Morning" PERFORMER "Golana" INDEX 01 00:00:00 TRACK 05 AUDIO TITLE "Soft Winds" PERFORMER "Golana" INDEX 00 03:48:60FILE "05 - Soft Winds.flac" WAVE INDEX 01 00:00:00FILE "06 - Above The Sky.flac" WAVE TRACK 06 AUDIO TITLE "Above The Sky" PERFORMER "Golana" INDEX 01 00:00:00 TRACK 07 AUDIO TITLE "Grandfather's Way" PERFORMER "Golana" INDEX 00 05:57:20FILE "07 - Grandfather's Way.flac" WAVE INDEX 01 00:00:00 TRACK 08 AUDIO TITLE "Farewell (Donadagollvi)" PERFORMER "Golana" INDEX 00 05:01:08FILE "08 - Farewell (Donadagollvi).flac" WAVE INDEX 01 00:00:00 TRACK 09 AUDIO TITLE "As Long As The Waters Run" PERFORMER "Golana" INDEX 00 03:45:00FILE "09 - As Long As The Waters Run.flac" WAVE INDEX 01 00:00:00 TRACK 10 AUDIO TITLE "Walks Alone Man" PERFORMER "Golana" INDEX 00 05:25:18FILE "10 - Walks Alone Man.flac" WAVE INDEX 01 00:00:00 TRACK 11 AUDIO TITLE "Feather On The Wind" PERFORMER "Golana" INDEX 00 04:19:50FILE "11 - Feather On The Wind.flac" WAVE INDEX 01 00:00:00
-----------------------

DON'T MODIFY THIS FILE

-----------------------

PERFORMER: auCDtect Task Manager, ver. 1.6.0 RC1 build 1.6.0.1Copyright (c) 2008-2010 y-soft. All rights reserved

ANALYZER: auCDtect: CD records authenticity detector, version 0.8.2Copyright (c) 2004 Oleg Berngardt. All rights reserved.Copyright (c) 2004 Alexander Djourik. All rights reserved.

FILE: 11 - Feather On The Wind.flac Size: 24132917 Hash: 6A0AF61E1DB98D4C81F60D1CF05C2A4E Accuracy: -m0 Conclusion: CDDA 100% Signature: 65AB27A8142E60E5C72AD8450105C0717FEA0E28FILE: 10 - Walks Alone Man.flac Size: 23159070 Hash: 0A5C853E933DD93B75D0E0A21EC544C7 Accuracy: -m0 Conclusion: CDDA 100% Signature: 7E2153E41753A33DA27100A80512442C3286CE0BFILE: 09 - As Long As The Waters Run.flac Size: 26248450 Hash: 1A4862BB40E36563B3A8D640254D7B56 Accuracy: -m0 Conclusion: CDDA 100% Signature: DAC9F988868A5F53DECBD660CADF3B3A89D55FD8FILE: 08 - Farewell (Donadagollvi).flac Size: 19635867 Hash: FFD193C534C2850439FDC18A369CAD84 Accuracy: -m0 Conclusion: CDDA 100% Signature: 1F8C163B455E79636C2B0FA9475F9FAD88BB5491FILE: 07 - Grandfather's Way.flac Size: 26722081 Hash: 2472C0FC6C7E14618F5344D1D7F4E713 Accuracy: -m0 Conclusion: CDDA 100% Signature: 02DA18D043D801A973DF2E6C8374FDADD0101B8BFILE: 06 - Above The Sky.flac Size: 26910279 Hash: E6FEE100017D26C476DD1888E3DEFC57 Accuracy: -m0 Conclusion: CDDA 100% Signature: 126AA0B7BD5787E224C03CE4BEB79EEAAD4E58AAFILE: 05 - Soft Winds.flac Size: 29775285 Hash: 916B84B358FB33F3A62836658EE9058C Accuracy: -m0 Conclusion: CDDA 99% Signature: C894D0C2890953EFF491465B19DDCF78D4BE7201FILE: 04 - Mojava Morning.flac Size: 18987525 Hash: 7E2FD478C6CDA7768BB9576677A1B54F Accuracy: -m0 Conclusion: CDDA 100% Signature: 12A297A209C77A245B4B915AE23C6F9A5AC92B44FILE: 03 - Allaluia.flac Size: 18448527 Hash: 7C223B7B15A5E52B4BF384B9A41F0D97 Accuracy: -m0 Conclusion: CDDA 99% Signature: 5F7AB839A060D1446EC6D133C1B95AAD399C2782FILE: 02 - All Good Medicine.flac Size: 31674072 Hash: AF8BD64E1F4EE679D20DF3B8993F3637 Accuracy: -m0 Conclusion: CDDA 99% Signature: 0E5A1E013F2F30CBA667B053CB68859D651133E6FILE: 01 - Closer To You.flac Size: 27774230 Hash: 1B401CCC49D63529C65239D1A596C75E Accuracy: -m0 Conclusion: CDDA 100% Signature: 166E2F2FFCF51739A496F07C15A9DEE99A479EB3
Native American flutist Golana, a member of the Echota Cherokee Tribe, began a spiritual quest 15 years ago that completely changed his life andled to the release of five award-winning albums.
Golana often composes while he is out in nature in majestic settings such as the Sierras, Joshua Tree and Sedona. His first album, Path to the Heart, featured all original material played on solo flutes and was a finalist in the NAV Music Awards for “Best Meditation & Healing Music.” His second release, Walk Between Worlds, debuted on NAV’s “Airwaves Top 100” radio chart at #2 and stayed in the Top 40 for five months. It won the 2000 COVR Award for “Best Native American Music” and was nominated for “Best Instrumental Record” in the Native American Music Awards. His third album, Feather on the Wind, was named a Finalist in the New Age Voice (NAV) Music Awards for “Best Native American Album”, won the winner of the Coalition of Visionary Retailers’ (COVR) Award for “Best Native American Music” and earned Golana´ prestigious Native American Music Award (NAMMY) nominations for both “Best Male Artist” and “Flutist of the Year.” Golaná’s fourth album, Moon of First Snow, continued this tradition of accolades, garnering a third NAMMY nomination, and winning the Instrumental category in the Indian Summer Awards.
This ensemble mix continues on Lone Pine Canyon with Golana´’s various flutes backed by acoustic guitar, acoustic grand piano, electronic keyboards, violin, cello and hand drums.

Most of Golana's music is characterized as emotive and spiritual. “When I play, it’s the long, drawn-out sounds of the flute that capture the feelings, the emotion and the passion in the compositions. The poignancy and slow pace of the songs helps me convey the feelings that inspired the writing of that music. I want the listener to slow down, match the mood of the music, and think about things.


Трекер:  [ 22-Дек-2013 12:20 ]

  

Скачать .torrent

Размер .torrent файла 11 KB


Размер: 261 MB
Хэш (hash) релиза: 9aaf975682698865b5dbca2c9921d5f0be8feecc

Еще никто не оставлял запись к записи скачать торрент Golana - Feather On The Wind - 2000, FLAC . Будь первым!

!Обратная связь