Скачать через торрент Полиция Будущего бесплатно Аниме Все серии на русском torrent

Если у вас наблюдаются проблемы со скриншотами, переходом по ссылками, скачиванием торрентов - проблемы в блокировщике рекламы AdBlock. #хорошегоДня!


Статистика раздачи
Размер:  4.55 GB   |    Зарегистрирован:  3 года 11 месяцев   |    .torrent скачан:  44 раза   |   
Раздают:  1  
   
Загрузка...
 
Автор Сообщение

Galfimbul

avatar Galfimbul


Полиция Будущего (фильм первый) / Mobile Police Patlabor: The Movie / Kidou Keisatsu Patlabor The Movie
Страна: Япония
Год выпуска: 1989
Жанр: приключения, фантастика, меха, драма
Тип: Movie
Продолжительность: 1 ч 39 мин
Озвучка:
Многоголосная MC Entertainment
Субтитры:
русские (внешние)
MC Entertainment
Студия:
Режиссер: Осии Мамору
Описание: Год 1999-й. Подразделение специальной техники полиции Токио оснащается роботизированными доспехами — так называемыми лейборами. Однако преступный мир не дремлет: последние технические разработки в области мобильных доспехов поступают в распоряжение криминальных элементов. Загадочное самоубийство на стройплощадке массивного «Проекта «Вавилон» тянет за собой цепочку событий, результатом которых может стать разрушение японской столицы. Полицейские расследуют связь между суицидом, новым лейбором AV-XP Zero и взбесившимся интеллектуальным танком-прототипом.

World Art
Качество: BDRip
Релиз/Автор рипа: THORA
Тип видео: без хардсаба
Формат: MKV
Видео: x264, 1280x688, ~5555кбит/с, 23.976fps, 8 bit
Аудио #1 русская - AC3, 6 ch, 384кбит/с, 48000Hz (в составе контейнера)
Аудио #2 японская - AC3, 6 ch, 640кбит/с, 48000Hz (в составе контейнера)
#1 Полиция Будущего OVA-1 - OVA (7 эп.), оригинальный сериал, 1988
#2 Полиция Будущего [ТВ] - ТВ (47 эп.), альтернативная версия, 1989
#3 Полиция Будущего (фильм первый) - п/ф, продолжение ТВ-сериала, 1989
#4 Полиция Будущего OVA-2 - OVA (16 эп.), продолжение OAV-сериала, 1990
#5 Полиция Будущего: Восстание (фильм второй) - п/ф, продолжение фильма #1, 1993
#6 Полиция Будущего: Монстр (фильм третий) - п/ф, продолжение, 2002
#7 Миниатюрная Полиция Будущего - к/ф, пародия на фильм #3, 2002



Общее
Уникальный идентификатор : 192643566238495247103690542707382435980 (0x90EDCD20C436428DAA2FEB42AC60408C)
Полное имя : C:\Торренты №2\Patlabor the Movie [BDRip 720p]\Patlabor_the_Movie_(1989)_[720p,BluRay,x264]_-_THORA.mkv
Формат : Matroska
Версия формата : Version 2
Размер файла : 4,55 Гбайт
Продолжительность : 1 ч. 39 м.
Общий поток : 6581 Кбит/сек
Название фильма : Patlabor_the_Movie_(1987)_[720p,BluRay,x264]_-_THORA
Дата кодирования : UTC 2013-12-23 07:43:06
Программа кодирования : mkvmerge v2.9.7 (''Tenderness'') built on Jul 1 2009 18:43:35
Библиотека кодирования : libebml v0.7.7 + libmatroska v0.8.1
Attachment : Yes / Yes

Видео
Идентификатор : 1
Формат : AVC
Формат/Информация : Advanced Video Codec
Профиль формата : High@L5.1
Параметр CABAC формата : Да
Параметр ReFrames формата : 13 кадров
Идентификатор кодека : V_MPEG4/ISO/AVC
Продолжительность : 1 ч. 39 м.
Битрейт : 5555 Кбит/сек
Ширина : 1280 пикселей
Высота : 688 пикселей
Соотношение сторон : 1,85:1
Режим частоты кадров : Постоянный
Частота кадров : 23,976 кадра/сек
Цветовое пространство : YUV
Субдискретизация насыщенности : 4:2:0
Битовая глубина : 8 бит
Тип развёртки : Прогрессивная
Бит/(Пиксели*Кадры) : 0.263
Размер потока : 3,75 Гбайт (82%)
Заголовок : Patlabor the Movie
Библиотека кодирования : x264 core 56 svn-667C
Настройки программы : cabac=1 / ref=10 / deblock=1:-3:-3 / analyse=0x3:0x133 / me=umh / subme=7 / brdo=1 / mixed_ref=1 / me_range=16 / chroma_me=1 / trellis=0 / 8x8dct=1 / cqm=2 / deadzone=21,11 / chroma_qp_offset=0 / threads=3 / nr=0 / decimate=0 / mbaff=0 / bframes=10 / b_pyramid=1 / b_adapt=1 / b_bias=0 / direct=1 / wpredb=1 / bime=1 / keyint=250 / keyint_min=25 / scenecut=40(pre) / rc=2pass / bitrate=5555 / ratetol=1.0 / rceq=''blurCplx^(1-qComp)'' / qcomp=0.60 / qpmin=10 / qpmax=51 / qpstep=4 / cplxblur=20.0 / qblur=0.5 / ip_ratio=1.40 / pb_ratio=1.30 / aq=1:0.7:15.0
Язык : Japanese
Default : Да
Forced : Нет

Аудио #1
Идентификатор : 2
Формат : AC-3
Формат/Информация : Audio Coding 3
Расширение режима : CM (complete main)
Параметр Endianness формата : Big
Идентификатор кодека : A_AC3
Продолжительность : 1 ч. 39 м.
Вид битрейта : Постоянный
Битрейт : 384 Кбит/сек
Каналы : 6 каналов
Расположение каналов : Front: L C R, Side: L R, LFE
Частота : 48,0 КГц
Битовая глубина : 16 бит
Метод сжатия : С потерями
Размер потока : 272 Мбайт (6%)
Заголовок : AC3 5.1 @ 384 kbps
Язык : Russian
Default : Да
Forced : Нет

Аудио #2
Идентификатор : 3
Формат : AC-3
Формат/Информация : Audio Coding 3
Расширение режима : CM (complete main)
Параметр Endianness формата : Big
Идентификатор кодека : A_AC3
Продолжительность : 1 ч. 39 м.
Вид битрейта : Постоянный
Битрейт : 640 Кбит/сек
Каналы : 6 каналов
Расположение каналов : Front: L C R, Side: L R, LFE
Частота : 48,0 КГц
Битовая глубина : 16 бит
Метод сжатия : С потерями
Размер потока : 453 Мбайт (10%)
Заголовок : AC3 5.1 @ 640 kbps
Язык : Japanese
Default : Нет
Forced : Нет



Трекер:  [ 23-Дек-2013 14:17 ]

  

Скачать .torrent

Размер .torrent файла 12 KB


Размер: 4.55 GB
Хэш (hash) релиза: 5a9288ae63cd981d86876a51326019e2bd1ca686
Подписка на обновления:

Торренты, похожие на Полиция Будущего скачать торрент

Форум Название Автор Размер S L Добавлен
Аниме | HD Rips ·· Полиция будущего TV / Mobile Police Patlabor TV / Kidou Keisatsu Patlabor [TV][1-47 из 47][JAP+SUB][1989 г., меха, фантастика, полиция, сёнэн][BDRip][960p] Galfimbul 1687002201415.71 GB 0 0 1305347522

07:32

14-Май-11

Аниме | Blu-Ray и BDRemux ·· Полиция будущего / Patlabor 1: The Movie [Movie] [RUS(int),ENG,JAP+SUB] [1989 г., драма, меха, фантастика, полиция, BDRemux] [1080p] [Профессиональная] Galfimbul 2906302350127.07 GB 0 0 1305347453

07:30

14-Май-11

Аниме | Rips ·· Урасиман (Урашиман): Полиция будущего / Mirai Keisatsu Urashiman / Rockin' Cops [TV] [01-50 из 50] [Полухардсаб] [JAP] [1983, приключения, комедия, фантастика, DVDRip] Galfimbul 1324478988612.34 GB 0 0 1499016665

20:31

2-Июл-17

Аниме | DVD ·· Полиция Будущего: Монстр / Patlabor WXIII / WXIII Kidou Keisatsu Patlabor [Movie] [RUS, JAP, SUB] [2002, приключения, фантастика, меха, драма] [DVD9] Galfimbul 82861383687.72 GB 0 0 1489742888

12:28

17-Мар-17

Аниме | HD Rips ·· Полиция Будущего: Монстр (фильм третий) / Patlabor WXIII / WXIII Kidou Keisatsu Patlabor (Такаяма Фумихико) [Movie] [без хардсаба] [RUS(int), JAP+SUB] [2002 г., приключения, фантастика, меха, драма, BDRip] [720p] [HD] Galfimbul 51296202194.78 GB 0 0 1387797535

14:18

23-Дек-13

Аниме | HD Rips ·· Полиция Будущего: Восстание (фильм второй) / Mobile Police Patlabor 2: The Movie / Kidou Keisatsu Patlabor 2 The Movie (Осии Мамору) [Movie] [без хардсаба] [RUS(int), JAP+SUB] [1993 г., приключения, фантастика, меха, драма, BDRip] [720p] [HD] Galfimbul 51498964714.8 GB 0 0 1387797501

14:18

23-Дек-13

Аниме | Blu-Ray и BDRemux ·· Полиция Будущего: Монстр (фильм третий) / Patlabor WXIII / WXIII Kidou Keisatsu Patlabor (Такаяма Фумихико) [Movie] [без хардсаба] [RUS(int), ENG, JAP+SUB] [2002 г., приключения, фантастика, меха, драма, BDRemux] [1080p] L 2947511109827.45 GB 0 0 1328513751

10:35

6-Фев-12

Аниме | Blu-Ray и BDRemux ·· Полиция Будущего: Восстание (фильм второй) / Mobile Police Patlabor 2: The Movie / Kidou Keisatsu Patlabor 2 The Movie (Осии Мамору) [Movie] [без хардсаба] [RUS(int), ENG, JAP+SUB] [1993 г., приключения, фантастика, меха, драма, BDRemux] [1080p] L 2727427028925.4 GB 0 0 1325268332

21:05

30-Дек-11

Аниме | DVD ·· Полиция будущего: Восстание /Patlabor 2: The Movie (Мамору Осии) [1993 г., Аниме, DVD9] от МС Владыка 84117685947.83 GB 0 0 1310319106

20:31

10-Июл-11

Аниме | Blu-Ray и BDRemux ·· Полиция Будущего OVA-1 / Kidou Keisatsu Patlabor / Mobile Police Patlabor [OVA] [1-7 из 7] [JAP+SUB] [1988 г., приключения, фантастика, меха, BDRemux] [1080p] Galfimbul 4374763818840.74 GB 0 0 1305347397

07:29

14-Май-11

Аниме | Rips ·· Полиция будущего 3: Монстр / WXIII: Patlabor The Movie 3 [Movie] [RUS] [2002 г., Фантастика, Боевик, Анимационный, BDRip] [Профессиональная] admin 15658762241.46 GB 0 0 1290021933

22:25

17-Ноя-10

Еще никто не оставлял запись к записи скачать торрент Полиция Будущего . Будь первым!

!Обратная связь