Скачать через торрент музыку Черное и белое Black And White - 2000, FLAC бесплатно без регистрации torrent

Если у вас наблюдаются проблемы со скриншотами, переходом по ссылками, скачиванием торрентов - проблемы в блокировщике рекламы AdBlock. #хорошегоДня!


Статистика раздачи
Размер:  326 MB   |    Зарегистрирован:  6 лет 10 месяцев   |    .torrent скачан:  40 раз   |   
Раздают:  1  
   
Загрузка...
 
Автор Сообщение

Комедиант

avatar Комедиант


Черное и белое / Black And White

Жанр: Soundtrack
Год выпуска диска: 2000
Производитель диска: USA
Аудио кодек: FLAC
Тип рипа: tracks+.cue
Битрейт аудио: lossless
Продолжительность: 00:52:55

01 - American Cream Team (ft. Raekwon) - It's Not A Game
02 - Xzbit (ft. Jonathan David) - Year 2000 (Remix)
03 - Prodigy of Mobb Deep - Don't Be A Follower
04 - The X-ecutioners (ft. Big Pun & Kool G Rap) - Dramacide
05 - Everlast - Life's A Bitch
06 - Raekwon - Wake Up
07 - dead prez (ft. Stephen Marley & Getto Youths Crew) - Dem Crazy
08 - Chip Banks (ft. Tha Outlawz) - Stand For Something
09 - American Cream Team - Middle Finger Attitude
10 - Queen Pen (ft. Joe Hooker) - You'll Never Be Better Than Me (I'm That Shit)
11 - Samuel Christian (ft. Mos Def) - You (Feel Good Remix)
12 - LV - You're A Big Girl Now
13 - Michael Fredo - Free

Источник: what.cd
 
Exact Audio Copy V0.99 prebeta 4 from 23. January 2008

EAC extraction logfile from 27. July 2008, 19:50

Various / Black and White

Used drive : HL-DT-STCD-RW GCE-8483B Adapter: 1 ID: 0

Read mode : SecureUtilize accurate stream : YesDefeat audio cache : YesMake use of C2 pointers : No

Read offset correction : 6Overread into Lead-In and Lead-Out : YesFill up missing offset samples with silence : YesDelete leading and trailing silent blocks : NoNull samples used in CRC calculations : YesUsed interface : Native Win32 interface for Win NT & 2000Gap handling : Appended to previous track

Used output format : User Defined EncoderSelected bitrate : 192 kBit/sQuality : HighAdd ID3 tag : NoCommand line compressor : C:\Program Files\Exact Audio Copy\Flac\flac.exeAdditional command line options : -8 -A tukey(0.25) -A gauss(0.1875) -b 4096 -V -T "artist=%a" -T "title=%t" -T "album=%g" -T "date=%y" -T "tracknumber=%n" -T "genre=%m" %s --sector-align

TOC of the extracted CD

Track | Start | Length | Start sector | End sector --------------------------------------------------------- 1 | 0:00.00 | 4:57.17 | 0 | 22291 2 | 4:57.17 | 3:45.25 | 22292 | 39191 3 | 8:42.42 | 3:15.03 | 39192 | 53819 4 | 11:57.45 | 3:39.40 | 53820 | 70284 5 | 15:37.10 | 3:24.40 | 70285 | 85624 6 | 19:01.50 | 4:07.27 | 85625 | 104176 7 | 23:09.02 | 4:55.23 | 104177 | 126324 8 | 28:04.25 | 4:40.62 | 126325 | 147386 9 | 32:45.12 | 4:09.45 | 147387 | 166106 10 | 36:54.57 | 4:35.03 | 166107 | 186734 11 | 41:29.60 | 3:46.20 | 186735 | 203704 12 | 45:16.05 | 4:14.67 | 203705 | 222821 13 | 49:30.72 | 3:24.18 | 222822 | 238139

Track 1

Filename C:\Documents and Settings\\Desktop\EAC Downloads\01 - American Cream Team (ft. Raekwon) - It's Not A Game.wav

Pre-gap length 0:00:02.00

Peak level 100.0 % Track quality 100.0 % Test CRC 5D48C91F Copy CRC 5D48C91F Accurately ripped (confidence 2) [EF95BB88] Copy OK

Track 2

Filename C:\Documents and Settings\\Desktop\EAC Downloads\02 - Xzbit (ft. Jonathan David) - Year 2000 (Remix).wav

Peak level 82.1 % Track quality 100.0 % Test CRC 18912B93 Copy CRC 18912B93 Accurately ripped (confidence 2) [AB9914E4] Copy OK

Track 3

Filename C:\Documents and Settings\\Desktop\EAC Downloads\03 - Prodigy of Mobb Deep - Don't Be A Follower.wav

Pre-gap length 0:00:01.13

Peak level 100.0 % Track quality 100.0 % Test CRC 67201ECF Copy CRC 67201ECF Accurately ripped (confidence 2) [5A13A670] Copy OK

Track 4

Filename C:\Documents and Settings\\Desktop\EAC Downloads\04 - The X-ecutioners (ft. Big Pun & Kool G Rap) - Dramacide.wav

Pre-gap length 0:00:01.10

Peak level 99.9 % Track quality 100.0 % Test CRC 38B0EF1C Copy CRC 38B0EF1C Accurately ripped (confidence 2) [A4B40746] Copy OK

Track 5

Filename C:\Documents and Settings\\Desktop\EAC Downloads\05 - Everlast - Life's A Bitch.wav

Pre-gap length 0:00:01.20

Peak level 100.0 % Track quality 99.9 % Test CRC 38111E91 Copy CRC 38111E91 Accurately ripped (confidence 2) [A30A8BC6] Copy OK

Track 6

Filename C:\Documents and Settings\\Desktop\EAC Downloads\06 - Raekwon - Wake Up.wav

Peak level 99.9 % Track quality 99.9 % Test CRC 3DF16052 Copy CRC 3DF16052 Accurately ripped (confidence 2) [94643BB8] Copy OK

Track 7

Filename C:\Documents and Settings\\Desktop\EAC Downloads\07 - dead prez (ft. Stephen Marley & Getto Youths Crew) - Dem Crazy.wav

Peak level 99.9 % Track quality 100.0 % Test CRC 49552A84 Copy CRC 49552A84 Accurately ripped (confidence 2) [2E85D054] Copy OK

Track 8

Filename C:\Documents and Settings\\Desktop\EAC Downloads\08 - Chip Banks (ft. Tha Outlawz) - Stand For Something.wav

Pre-gap length 0:00:01.06

Peak level 100.0 % Track quality 100.0 % Test CRC 0A17EAE7 Copy CRC 0A17EAE7 Accurately ripped (confidence 2) [C9DD5A4E] Copy OK

Track 9

Filename C:\Documents and Settings\\Desktop\EAC Downloads\09 - American Cream Team - Middle Finger Attitude.wav

Pre-gap length 0:00:01.93

Peak level 100.0 % Track quality 100.0 % Test CRC 35490DF4 Copy CRC 35490DF4 Accurately ripped (confidence 2) [C17A9521] Copy OK

Track 10

Filename C:\Documents and Settings\\Desktop\EAC Downloads\10 - Queen Pen (ft. Joe Hooker) - You'll Never Be Better Than Me (I'm That Shit).wav

Pre-gap length 0:00:01.42

Peak level 100.0 % Track quality 100.0 % Test CRC D08C9614 Copy CRC D08C9614 Accurately ripped (confidence 2) [B91F8067] Copy OK

Track 11

Filename C:\Documents and Settings\\Desktop\EAC Downloads\11 - Samuel Christian (ft. Mos Def) - You (Feel Good Remix).wav

Pre-gap length 0:00:01.44

Peak level 79.4 % Track quality 100.0 % Test CRC 4BC40B7C Copy CRC 4BC40B7C Accurately ripped (confidence 2) [D6A08BC5] Copy OK

Track 12

Filename C:\Documents and Settings\\Desktop\EAC Downloads\12 - LV - You're A Big Girl Now.wav

Pre-gap length 0:00:01.20

Peak level 100.0 % Track quality 100.0 % Test CRC CBEF1890 Copy CRC CBEF1890 Accurately ripped (confidence 2) [88AACB1B] Copy OK

Track 13

Filename C:\Documents and Settings\\Desktop\EAC Downloads\13 - Michael Fredo - Free.wav

Pre-gap length 0:00:01.20

Peak level 100.0 % Track quality 100.0 % Test CRC 8E199EC2 Copy CRC 8E199EC2 Accurately ripped (confidence 2) [1CD52BAA] Copy OK

All tracks accurately ripped

No errors occurred

End of status report
 
REM GENRE OtherREM DATE 2000REM DISCID CB0C670DREM COMMENT "ExactAudioCopy v0.99pb4"PERFORMER "Various"TITLE "Black and White"FILE "01 - American Cream Team (ft. Raekwon) - It's Not A Game.wav" WAVE TRACK 01 AUDIO TITLE "It's Not A Game " PERFORMER "American Cream Team (ft. Raekwon)" INDEX 01 00:00:00FILE "02 - Xzbit (ft. Jonathan David) - Year 2000 (Remix).wav" WAVE TRACK 02 AUDIO TITLE "Year 2000 (Remix) " PERFORMER "Xzbit (ft. Jonathan David)" INDEX 01 00:00:00 TRACK 03 AUDIO TITLE "Don't Be A Follower " PERFORMER "Prodigy of Mobb Deep" INDEX 00 03:44:15FILE "03 - Prodigy of Mobb Deep - Don't Be A Follower.wav" WAVE INDEX 01 00:00:00 TRACK 04 AUDIO TITLE "Dramacide " PERFORMER "The X-ecutioners (ft. Big Pun & Kool G Rap)" INDEX 00 03:13:70FILE "04 - The X-ecutioners (ft. Big Pun & Kool G Rap) - Dramacide.wav" WAVE INDEX 01 00:00:00 TRACK 05 AUDIO TITLE "Life's A Bitch " PERFORMER "Everlast" INDEX 00 03:38:25FILE "05 - Everlast - Life's A Bitch.wav" WAVE INDEX 01 00:00:00FILE "06 - Raekwon - Wake Up.wav" WAVE TRACK 06 AUDIO TITLE "Wake Up " PERFORMER "Raekwon" INDEX 01 00:00:00FILE "07 - dead prez (ft. Stephen Marley & Getto Youths Crew) - Dem Crazy.wav" WAVE TRACK 07 AUDIO TITLE "Dem Crazy" PERFORMER "dead prez (ft. Stephen Marley & Getto Youths Crew)" INDEX 01 00:00:00 TRACK 08 AUDIO TITLE "Stand For Something " PERFORMER "Chip Banks (ft. Tha Outlawz)" INDEX 00 04:54:18FILE "08 - Chip Banks (ft. Tha Outlawz) - Stand For Something.wav" WAVE INDEX 01 00:00:00 TRACK 09 AUDIO TITLE "Middle Finger Attitude " PERFORMER "American Cream Team" INDEX 00 04:38:67FILE "09 - American Cream Team - Middle Finger Attitude.wav" WAVE INDEX 01 00:00:00 TRACK 10 AUDIO TITLE "You'll Never Be Better Than Me (I'm That Shit) " PERFORMER "Queen Pen (ft. Joe Hooker)" INDEX 00 04:08:13FILE "10 - Queen Pen (ft. Joe Hooker) - You'll Never Be Better Than Me (I'm That Shit).wav" WAVE INDEX 01 00:00:00 TRACK 11 AUDIO TITLE "You (Feel Good Remix) " PERFORMER "Samuel Christian (ft. Mos Def)" INDEX 00 04:33:45FILE "11 - Samuel Christian (ft. Mos Def) - You (Feel Good Remix).wav" WAVE INDEX 01 00:00:00 TRACK 12 AUDIO TITLE "You're A Big Girl Now " PERFORMER "LV" INDEX 00 03:45:05FILE "12 - LV - You're A Big Girl Now.wav" WAVE INDEX 01 00:00:00 TRACK 13 AUDIO TITLE "Free " PERFORMER "Michael Fredo" INDEX 00 04:13:52FILE "13 - Michael Fredo - Free.wav" WAVE INDEX 01 00:00:00


Трекер:  [ 26-Янв-2011 22:44 ]

  

Скачать .torrent

Размер .torrent файла 14 KB


Размер: 326 MB
Хэш (hash) релиза: 0d3b00acb4da50e931bb46859cf785e843f3e8b9

Еще никто не оставлял запись к записи скачать торрент Черное и белое Black And White - 2000, FLAC . Будь первым!

!Обратная связь