Скачать через торрент музыку The Happening Явление бесплатно без регистрации torrent

Если у вас наблюдаются проблемы со скриншотами, переходом по ссылками, скачиванием торрентов - проблемы в блокировщике рекламы AdBlock. #хорошегоДня!


Статистика раздачи
Размер:  216 MB   |    Зарегистрирован:  6 лет 10 месяцев   |    .torrent скачан:  56 раз   |   
Раздают:  1  
   
Загрузка...
 
Автор Сообщение

Комедиант

avatar Комедиант


The Happening / Явление

Жанр: OST (Score)
Год выпуска диска: 2008
Производитель диска: USA
Аудио кодек: FLAC
Тип рипа: image+.cue
Битрейт аудио: lossless
Продолжительность: 50:06
Трэклист:
01 Main Titles.flac
02 Evacuating Philadelphia.flac
03 Vice Principal.flac
04 Central Park.flac
05 We Lost Contact.flac
06 You Can't Just Leave Us Here.flac
07 Rittenhouse Square.flac
08 Five Miles Back.flac
09 Princeton.flac
10 Jess Comforts Elliot.flac
11 My Firearm is My Friend.flac
12 Abandoned House.flac
13 Shotgun.flac
14 You Eyin' My Lemon Drink?.flac
15 Mrs. Jones.flac
16 Voices.flac
17 Be with You.flac
18 End Title Suite.flac

Код:

Exact Audio Copy V0.99 prebeta 4 from 23. January 2008

EAC extraction logfile from 3. July 2008, 0:25

James Newton Howard / The Happening

Used drive : PLEXTOR CD-R PREMIUM Adapter: 1 ID: 0

Read mode : Secure
Utilize accurate stream : Yes
Defeat audio cache : Yes
Make use of C2 pointers : No

Read offset correction : 30
Overread into Lead-In and Lead-Out : Yes
Fill up missing offset samples with silence : Yes
Delete leading and trailing silent blocks : No
Null samples used in CRC calculations : Yes
Used interface : Native Win32 interface for Win NT & 2000

Used output format : User Defined Encoder
Selected bitrate : 320 kBit/s
Quality : High
Add ID3 tag : No
Command line compressor : D:\Digital audio\FLAC\flac.exe
Additional command line options : -T "artist=%a" -T "title=%t" -T "album=%g" -T "date=%y" -T "tracknumber=%n/%x" -T "genre=%m" -6 %s

TOC of the extracted CD

 Track | Start | Length | Start sector | End sector
---------------------------------------------------------
1 | 0:00.00 | 2:18.49 | 0 | 10398
2 | 2:18.49 | 2:21.13 | 10399 | 20986
3 | 4:39.62 | 1:55.51 | 20987 | 29662
4 | 6:35.38 | 2:58.30 | 29663 | 43042
5 | 9:33.68 | 0:59.15 | 43043 | 47482
6 | 10:33.08 | 1:43.34 | 47483 | 55241
7 | 12:16.42 | 1:58.55 | 55242 | 64146
8 | 14:15.22 | 1:12.09 | 64147 | 69555
9 | 15:27.31 | 3:06.30 | 69556 | 83535
10 | 18:33.61 | 2:30.41 | 83536 | 94826
11 | 21:04.27 | 2:58.58 | 94827 | 108234
12 | 24:03.10 | 1:31.63 | 108235 | 115122
13 | 25:34.73 | 4:27.17 | 115123 | 135164
14 | 30:02.15 | 4:27.59 | 135165 | 155248
15 | 34:29.74 | 1:44.36 | 155249 | 163084
16 | 36:14.35 | 1:35.60 | 163085 | 170269
17 | 37:50.20 | 3:41.22 | 170270 | 186866
18 | 41:31.42 | 8:35.72 | 186867 | 225563

Range status and errors

Selected range

 Filename G:\Temp\James Newton Howard\The Happening\James Newton Howard - The Happening.wav

 Peak level 99.4 %
Range quality 100.0 %
Test CRC 8183525D
Copy CRC 8183525D
Copy OK

No errors occurred

AccurateRip summary

Track 1 not present in database
Track 2 not present in database
Track 3 not present in database
Track 4 not present in database
Track 5 not present in database
Track 6 not present in database
Track 7 not present in database
Track 8 not present in database
Track 9 not present in database
Track 10 not present in database
Track 11 not present in database
Track 12 not present in database
Track 13 not present in database
Track 14 not present in database
Track 15 not present in database
Track 16 not present in database
Track 17 not present in database
Track 18 not present in database

None of the tracks are present in the AccurateRip database

End of status report


Трекер:  [ 27-Янв-2011 08:23 ]

  

Скачать .torrent

Размер .torrent файла 18 KB


Размер: 216 MB
Хэш (hash) релиза: 28478f6aa77d61aa9dbe1bdf5d561437b15acef5

Еще никто не оставлял запись к записи скачать торрент The Happening Явление . Будь первым!

!Обратная связь