Скачать через торрент музыку Ennio Morricone - Crime and Dissonance бесплатно без регистрации torrent

Если у вас наблюдаются проблемы со скриншотами, переходом по ссылками, скачиванием торрентов - проблемы в блокировщике рекламы AdBlock. #хорошегоДня!


Статистика раздачи
Размер:  1.15 GB   |    Зарегистрирован:  6 лет 10 месяцев   |    .torrent скачан:  63 раза   |   
Раздают:  1  
   
Загрузка...
 
Автор Сообщение

Комедиант

avatar Комедиант


Ennio Morricone - Crime and Dissonance (An Absolutely Essential Morriconography by Mike Patton)

Жанр: Score/Bizarre/Psychedelic
Год выпуска диска: 2005
Производитель диска: US
Аудио кодек: FLAC
Тип рипа: image+.cue
Битрейт аудио: lossless
Giorno Di Notte Conducted by Bruno Nicolai. (From the film Una Lucertola Con La Pelle Di Donna) 1971
Astratto 3 (From the film Veruschka [Poesia Di Una Donna]) 1971
Corsa Sui Tetti Conducted by Bruno Nicolai. (From the film L’Uccello Con Le Piume Di Cristallo) 1969
Ric Happening Conducted by Bruno Nicolai. (From the film Metti Una, Sera A Cena) 1969
Memento (From the film L’Istruttoria E’ Chiusa: Dimentichi) 1971
Ricreazione Divertita Conducted by Bruno Nicolai (From the film Cuore Di Mamma) 1969
Studio Di Colore Conducted by Bruno Nicolai (From the film L’Assoluto Naturale) 1970
Forza G (Quella Donna) Conducted by Bruno Nicolai (From the film Forza G) 1972
Placcaggio Conducted by Bruno Nicolai (From the film Il Gatto A Nove Code) 1971
Seguita Performed by Gruppo Di Improvvisazione Nuova Consonanza. (From the film Gli Occhi Freddi Della Paura) 1971
Postludio Alla Terza Moglie Conducted by Franco Tamponi (From the film Barbablu’) 1972
L’Uccello Con Le Piume Di Cristallo (Titoli) Conducted by Bruno Nicolai. (From the film L’Uccello Con Le Piume Di Cristallo) 1969
Il Buio Conducted by Bruno Nicolai. (From the film L’Anticristo) 1974
Rapimento In Campo Aperto Conducted by Bruno Nicolai. (From the film La Moglie Piu’ Bella) 1970
Le Fotografie (From the film Veruschka [Poesia Di Una Donna]) 1971
Spiriti Conducted by Bruno Nicolai. (From the film Una Lucertola, Con La Pelle Di Donna) 1971
Ninna Nanna Per Adulteri Conducted by Bruno Nicolai. (From the film Cuore Di Mamma) 1969
Astrazione Con Ritmo (From the film Il Serpente) 1973
 
Exact Audio Copy V0.99 prebeta 4 from 23. January 2008

EAC extraction logfile from 24. March 2009, 21:49

Ennio Morricone / Crime And Dissonance (Disk 1)

Used drive : MATSHITADVD-RAM UJ-841S Adapter: 1 ID: 0

Read mode : SecureUtilize accurate stream : YesDefeat audio cache : YesMake use of C2 pointers : No

Read offset correction : 102Overread into Lead-In and Lead-Out : NoFill up missing offset samples with silence : YesDelete leading and trailing silent blocks : NoNull samples used in CRC calculations : YesUsed interface : Native Win32 interface for Win NT & 2000

Used output format : User Defined EncoderSelected bitrate : 320 kBit/sQuality : HighAdd ID3 tag : NoCommand line compressor : C:\Program Files\FLAC\flac.exeAdditional command line options : -8 -V -T "ARTIST=%a" -T "TITLE=%t" -T "ALBUM=%g" -T "DATE=%y" -T "TRACKNUMBER=%n" -T "GENRE=%m" -T "COMMENT=EAC FLAC -8" %s

TOC of the extracted CD

Track | Start | Length | Start sector | End sector --------------------------------------------------------- 1 | 0:00.00 | 4:43.45 | 0 | 21269 2 | 4:43.45 | 1:48.35 | 21270 | 29404 3 | 6:32.05 | 5:00.37 | 29405 | 51941 4 | 11:32.42 | 3:23.60 | 51942 | 67226 5 | 14:56.27 | 2:38.25 | 67227 | 79101 6 | 17:34.52 | 2:59.30 | 79102 | 92556 7 | 20:34.07 | 1:13.60 | 92557 | 98091 8 | 21:47.67 | 2:32.25 | 98092 | 109516 9 | 24:20.17 | 2:33.50 | 109517 | 121041 10 | 26:53.67 | 3:15.08 | 121042 | 135674 11 | 30:09.00 | 2:43.15 | 135675 | 147914 12 | 32:52.15 | 1:25.07 | 147915 | 154296 13 | 34:17.22 | 4:00.45 | 154297 | 172341 14 | 38:17.67 | 1:24.28 | 172342 | 178669 15 | 39:42.20 | 1:01.22 | 178670 | 183266 16 | 40:43.42 | 2:12.35 | 183267 | 193201 17 | 42:56.02 | 3:06.00 | 193202 | 207151 18 | 46:02.02 | 4:19.01 | 207152 | 226577

Range status and errors

Selected range

Filename C:\Program Files\Music\Ennio Morricone - Crime And Dissonance\Ennio Morricone - Crime And Dissonance (Disk 1).wav

Peak level 96.6 % Range quality 100.0 % Test CRC E2AA8F71 Copy CRC E2AA8F71 Copy OK

No errors occurred

AccurateRip summary

Track 1 accurately ripped (confidence 3) [15AEE690]Track 2 accurately ripped (confidence 3) [96E8A7F2]Track 3 accurately ripped (confidence 3) [4B100B9B]Track 4 accurately ripped (confidence 3) [61F90B94]Track 5 accurately ripped (confidence 3) [1DCD01E5]Track 6 accurately ripped (confidence 3) [0D00CFCA]Track 7 accurately ripped (confidence 3) [86761098]Track 8 accurately ripped (confidence 3) [9341AA63]Track 9 accurately ripped (confidence 3) [4E62A5C0]Track 10 accurately ripped (confidence 3) [DF53E28A]Track 11 accurately ripped (confidence 3) [5FA33F22]Track 12 accurately ripped (confidence 3) [7DE7F101]Track 13 accurately ripped (confidence 3) [AA5BB19A]Track 14 accurately ripped (confidence 3) [0CFDB59E]Track 15 accurately ripped (confidence 3) [72E43902]Track 16 accurately ripped (confidence 3) [9A658143]Track 17 accurately ripped (confidence 3) [CEE62ECA]Track 18 accurately ripped (confidence 3) [4D23FFC4]

All tracks accurately ripped

End of status report
Trafelato (From the film Giornata Nera Per L’Ariete) 1971
Sensi (From the film Un Bellissimo Novembre) 1969
Gli Intoccabili (Titoli) Conducted by Bruno Nicolai. (From the film Gli Intoccabili) 1968
Fondate Paure Conducted by Bruno Nicolai. (From the film Una Lucertola Con La Pelle Di Donna) 1971
L’Attentato (alternate version 1) Conducted by Nicola Samale. (From the film L’Attentato) 1972
Fumeria D’Oppio Conducted by Franco Tamponi (From the film La Storia Vera Della Signora Dalle Camelie) 1981
1970 Conducted by Bruno Nicolai. (From the film Il Gatto A Nove Code) 1971
Esplicitamente Sospeso (From the film Il Serpente) 1973
Sequenza 10 (From the film Sesso In Confessionale) 1974
Paura E Aggressione (short version) (From the film Giornata Nera Per L’Ariete) 1971
Folle Folle Performed by Gruppo Di Improvvisazione Nuova Consonanza. (From the film Gli Occhi Freddi Della Paura) 1971
Un Uomo Da Rispettare (Titoli) Conducted by Nicola Samale. (From the film Un Uomo Da Rispettare) 1973
 
Exact Audio Copy V0.99 prebeta 4 from 23. January 2008

EAC extraction logfile from 26. March 2009, 22:17

Ennio Morricone / Crime and Dissonance (Disk 2)

Used drive : MATSHITADVD-RAM UJ-841S Adapter: 1 ID: 0

Read mode : SecureUtilize accurate stream : YesDefeat audio cache : YesMake use of C2 pointers : No

Read offset correction : 102Overread into Lead-In and Lead-Out : NoFill up missing offset samples with silence : YesDelete leading and trailing silent blocks : NoNull samples used in CRC calculations : YesUsed interface : Native Win32 interface for Win NT & 2000

Used output format : User Defined EncoderSelected bitrate : 320 kBit/sQuality : HighAdd ID3 tag : NoCommand line compressor : C:\Program Files\FLAC\flac.exeAdditional command line options : -8 -V -T "ARTIST=%a" -T "TITLE=%t" -T "ALBUM=%g" -T "DATE=%y" -T "TRACKNUMBER=%n" -T "GENRE=%m" -T "COMMENT=EAC FLAC -8" %s

TOC of the extracted CD

Track | Start | Length | Start sector | End sector --------------------------------------------------------- 1 | 0:00.00 | 2:30.20 | 0 | 11269 2 | 2:30.20 | 2:45.50 | 11270 | 23694 3 | 5:15.70 | 1:39.20 | 23695 | 31139 4 | 6:55.15 | 2:45.28 | 31140 | 43542 5 | 9:40.43 | 2:38.47 | 43543 | 55439 6 | 12:19.15 | 5:54.23 | 55440 | 82012 7 | 18:13.38 | 8:39.65 | 82013 | 121002 8 | 26:53.28 | 4:42.67 | 121003 | 142219 9 | 31:36.20 | 2:51.28 | 142220 | 155072 10 | 34:27.48 | 1:54.32 | 155073 | 163654 11 | 36:22.05 | 3:42.73 | 163655 | 180377 12 | 40:05.03 | 11:39.21 | 180378 | 232823

Range status and errors

Selected range

Filename C:\Program Files\Music\Ennio Morricone - Crime And Dissonance\Ennio Morricone - Crime and Dissonance (Disk 2).wav

Peak level 96.6 % Range quality 100.0 % Test CRC 694D667C Copy CRC 694D667C Copy OK

No errors occurred

AccurateRip summary

Track 1 accurately ripped (confidence 3) [B4FE9DEE]Track 2 accurately ripped (confidence 3) [C9715522]Track 3 accurately ripped (confidence 3) [797D6943]Track 4 accurately ripped (confidence 3) [F44102A0]Track 5 accurately ripped (confidence 3) [9A386D38]Track 6 accurately ripped (confidence 3) [27943E02]Track 7 accurately ripped (confidence 3) [D8402087]Track 8 accurately ripped (confidence 3) [002BBAD0]Track 9 accurately ripped (confidence 3) [69F2AF75]Track 10 accurately ripped (confidence 3) [6A7FB75A]Track 11 accurately ripped (confidence 3) [B5EFCF57]Track 12 accurately ripped (confidence 2) [F5AC3882]

All tracks accurately ripped

End of status report
“In Crime and Dissonance, Mike Patton has pulled together a rare collection of Morricone tracks that reflect his connection to the Maestro via a shared passion and commitment to the extreme and the experimental. Psychedelic Sitars, heavy breathing, screams, screeches, electric guitar feedback... much of Morricone's language here keenly intersects with the abstract metal soundscapes of Patton's own music giving us fresh insights into their deeply powerful and uncompromising aesthetics. Both artists have straddled the pop and experimental worlds throughout their careers, creating a body of work that is honest, authentic, meticulously crafted, imaginative and cathartic. Both artists have also suffered from a measure of misunderstanding. But the music lives on. Like all great music the bizarre miniatures that comprise this remarkable set are still as fresh as the day they were recorded (some thirty to forty years ago) and now through the generosity and vision of a youthful and committed contemporary music master, they reach a new generation of ears to inspire even newer vistas of creativity. It is the responsibility of the few to carry the torch of truth and integrity through the dark ages we find ourselves in and this heroic set of soundtrack rarities shows us that the spirit of freedom is, has been and always will be alive and well. One only has to look for it.”

- John Zorn NYC 2005

All selections composed by Ennio Morricone except: “Memento” (from the film L’Istruttoria E’ Chiusa: Dimentichi) by Ennio Morricone with the collaboration of Walter Branchi for the electronic music; “Seguita” (from the film Gli Occhi Freddi Della Paura) by Gruppo Di Improvvisazione Nuova Consonanza; “Il Buio” (from the film L’Anticristo) by Ennio Morricone and Bruno Nicolai; “Folle Folle” (from the film Gli Occhi Freddi Della Paura) by Gruppo Di Improvvisazione Nuova Consonanza

Produced by Filippo Salvadori
Compiled by Alan Bishop
Associate Producers Mike Patton & Greg Werckman

Release date: November 29th, 2005


Трекер:  [ 27-Янв-2011 08:39 ]

  

Скачать .torrent

Размер .torrent файла 13 KB


Размер: 1.15 GB
Хэш (hash) релиза: 68622981f07c19fcdc807596ff330bbecd110241

Еще никто не оставлял запись к записи скачать торрент Ennio Morricone - Crime and Dissonance . Будь первым!

!Обратная связь