Скачать через торрент музыку City Of Prague Philharmonic - 100 Greatest Film Themes - 2007, FLAC бесплатно без регистрации torrent

Если у вас наблюдаются проблемы со скриншотами, переходом по ссылками, скачиванием торрентов - проблемы в блокировщике рекламы AdBlock. #хорошегоДня!


Статистика раздачи
Размер:  1.97 GB   |    Зарегистрирован:  6 лет 10 месяцев   |    .torrent скачан:  57 раз   |   
Раздают:  1  
   
Загрузка...
 
Автор Сообщение

Комедиант

avatar Комедиант


City Of Prague Philharmonic - 100 Greatest Film Themes
100 Величайших тем из фильмов (1931-2006гг.)

Жанр: Score
Год выпуска диска: 2007
Производитель диска: США
Исполнители: Пражский Симфоническй Оркестр, Gertrud Huber,
N.Y. Jazz Orchestra, Королевский Симфонический Концертный оркестр
Keith Billik/Derek Smith, Mark Ayres, London Soul Singers/London Screen Orchestra,
Dan Head, Rick Clark.
Аудио кодек: FLAC
Тип рипа: tracks + cue
Битрейт аудио: lossless
Продолжительность: 6ч. 09м. 06с.
Количество композиций: 100
Наличие сканов: Да/только обложка основной коробки/*.png

TRACKLIST
01 - 20th Century Fox Fanfare And Cinemascope Extension
02 - Gone With The Wind (Tara's Theme)
03 - Casablanca (As Time Goes By)
04 - Gertrud Huber - The Third Man (The Harry Lime Theme)
05 - High Noon (Do Not Forsake Me Oh My Darlin')
06 - The Dambusters (March)
07 - N.Y. Jazz Orchestra - The Man With The Golden Arm (Main Theme)
08 - Around The World In 80 Days (Around The World In 80 Days)
09 - The Bridge On The River Kwai (March)
10 - The Big Country (Main Theme)
11 - North By Northwest (Overture)
12 - Ben-Hur (Parade Of The Chariotees)
13 - A Summer Place (Young Love)
14 - The Magnificent Seven (Main Theme)
15 - Psycho (Main Theme - Murder)
16 - Exodus (Overture)
17 - Breakfast At Tiffany's (Moon River)
01 - Lawrence Of Arabia (Overture)
02 - Hatari (Baby Elephant Walk)
03 - Dr. No (The James Bond Theme)
04 - Royal Philharmonic Concert Orchestra - The Pink Panther (The Pink Panther Theme)
05 - The Great Escape (Main Title)
06 - 633 Aquadron (Main Title)
07 - Zorba The Greek (Zorba's Dance)
08 - Doctor Zhivago (Lara's Theme)
09 - Born Free (Born Free)
10 - The Good, The Bad And The Ugly (Main Title)
11 - Casino Royale (Theme)
12 - The Thomas Crown Affair (The Windmills Of Your Mind)
13 - N.Y. Jazz Orchestra - Bullitt (Main Theme)
14 - Romeo And Juliet (Love Theme)
15 - 2001- A Space Odyssey (Also Sprach Zarathustra)
16 - Twisted Nerve (Main Theme)
01 - City of Prague Philharmonic - Once Upon a Time in the West (Jill's Theme)
02 - City of Prague Philharmonic - Midnight Cowboy (Midnight Cowboy)
03 - City of Prague Philharmonic - Butch Cassidy and the Sundance Kid (Raindrops keep fallin' on my Head)
04 - City of Prague Philharmonic - Love Story (Love Story)
05 - N.Y. Jazz Orchestra - Dirty Harry (Main Title).flac
06 - City of Prague Philharmonic - Summer of '42 (Summer of '42)
07 - City of Prague Philharmonic - The Godfather (Speak Softly Love)
08 - Keith Billik-Derek Smith - Deliverance (Duelling Banjos)
09 - Mark Ayres - The Exorcist (Tubular Bells)
10 - City of Prague Philharmonic - Jaws (Main Title)
11 - City of Prague Philharmonic - Barry Lyndon (Sarabande)
12 - City of Prague Philharmonic - Taxi Driver (Main Theme)
13 - London Soul Singers-London Screen Orchestra - Rocky (Gonna fly now)
14 - City of Prague Philharmonic - Star Wars- A New Hope (Main Theme)
15 - City of Prague Philharmonic - Close Encounters of the Third Kind (Main Title - Resolution and Finale)
16 - City of Prague Philharmonic - The Deer Hunter (Cavatina)
17 - City of Prague Philharmonic - Superman (Main Theme)
01 - Greatest Film City Of Prague Philharmonic - Star Trek- The Motion Picture (End Titles)
02 - Somewhere In Time (Somewhere In Time)
03 - Mark Ayres - Chariots Of Fire (Titles)
04 - Raiders Of The Lost Ark (The Raiders March)
05 - E.T. The Extraterrestrial (Bicycle Chase & End Credits)
06 - Mark Ayres - Merry Christmas, Mr. Lawrence (Merry Christmas, Mr. Lawrence)
07 - The Natural (The Natural)
08 - Once Upon A Time In America (Deborah's Theme)
09 - Back To The Future (Main Theme)
10 - Out Of Africa (Main Theme)
11 - Jean De Florette (Jean De Florette)
12 - The Mission (Gabriel's Oboe)
13 - Cinema Paradiso (Love Theme)
14 - Batman (The Batman Theme)
15 - Dance With The Wolves (The John Dunbar Theme)
16 - Edward Scissorhands (Main Title)
01 - Ghost (Unchained Melody)
02 - Robin Hood- Prince Of Thieves (Main Title)
03 - 1492- Conquest Of Paradise (1492- Conquest Of Paradise)
04 - The Last Of The Mohicans (Main Title)
05 - Jurassic Park (Suite)
06 - Dan Head - True Romance (You're So Cool)
07 - The Piano (The Heart Asks Pleasure First)
08 - Schindler's List (Schindler's List)
09 - Il Postino (Girl On A Bicycle)
10 - The Shawshank Redemption (End Titles)
11 - Braveheart (End Titles)
12 - William Shakespeare's Romeo + Juliet (The Balcony Scene)
13 - The English Patient (As Far As Florence - Rupert Bear)
14 - Dragonheart (Main Themes)
15 - Airforce One (Main Title)
16 - Titanic (My Heart Will Go On)
17 - Saving Private Ryan (Hymn To The Fallen)
01 - Eyes Wide Shut (Waltz No. 2 From Jazz Suite No. 2)
02 - Rick Clark - American Beauty (Any Other Name)
03 - Star Wars- The Phantom Menace (Duel Of The Fates)
04 - Gladiator (Now We Are Free)
05 - The Lord Of The Rings- The Fellowship Of The Ring (The Fellowship)
06 - Harry Potter And The Philosopher's Stone (Hedwig's Theme)
07 - Spiderman (Main Theme)
08 - Pirates Of The Caribbean- The Curse Of The Black Pearl (Suite)
09 - The Girl With The Pearl Earring (Griet's Theme)
10 - Les Choristes (Les Choristes)
11 - Passion Of The Christ (Resurrection)
12 - Memoirs Of A Geisha (Sayuri's Theme & End Credits)
13 - Munich (Prayer For Peace)
14 - The Chronicles Of Narnia- The Lion, The Witch And The Wardrobe (Suite)
15 - Wallace And Gromit- Curse Of The Were-Rabbit (Theme And Chase)
16 - Brokeback Mountain (Suite)
17 - The Da Vinci Code (Chevaliers De Sangreal)
ПРОВЕРКА
Exact Audio Copy V0.99 prebeta 5 from 4. May 2009

EAC extraction logfile from 16. August 2009, 12:11

Various / 100 Greatest Film Themes (Disc 1)

Used drive : PIONEER DVD-RW DVR-108 Adapter: 0 ID: 1

Read mode : Secure
Utilize accurate stream : Yes
Defeat audio cache : Yes
Make use of C2 pointers : No

Read offset correction : 48
Overread into Lead-In and Lead-Out : Yes
Fill up missing offset samples with silence : Yes
Delete leading and trailing silent blocks : No
Null samples used in CRC calculations : Yes
Used interface : Native Win32 interface for Win NT & 2000
Gap handling : Appended to previous track

Used output format : User Defined Encoder
Selected bitrate : 768 kBit/s
Quality : High
Add ID3 tag : No
Command line compressor : C:\Program Files (x86)\FLAC\flac.exe
Additional command line options : -V -8 -T "artist=%a" -T "title=%t" -T "album=%g" -T "date=%y" -T "tracknumber=%n" -T "genre=%m" %s

TOC of the extracted CD

Track | Start | Length | Start sector | End sector
---------------------------------------------------------
1 | 0:00.00 | 0:21.10 | 0 | 1584
2 | 0:21.10 | 4:20.31 | 1585 | 21115
3 | 4:41.41 | 3:05.25 | 21116 | 35015
4 | 7:46.66 | 2:21.45 | 35016 | 45635
5 | 10:08.36 | 2:31.60 | 45636 | 57020
6 | 12:40.21 | 3:53.00 | 57021 | 74495
7 | 16:33.21 | 1:50.32 | 74496 | 82777
8 | 18:23.53 | 3:24.57 | 82778 | 98134
9 | 21:48.35 | 4:08.54 | 98135 | 116788
10 | 25:57.14 | 2:52.38 | 116789 | 129726
11 | 28:49.52 | 3:21.16 | 129727 | 144817
12 | 32:10.68 | 3:38.41 | 144818 | 161208
13 | 35:49.34 | 2:17.38 | 161209 | 171521
14 | 38:06.72 | 4:52.10 | 171522 | 193431
15 | 42:59.07 | 3:00.18 | 193432 | 206949
16 | 45:59.25 | 4:23.46 | 206950 | 226720
17 | 50:22.71 | 3:11.28 | 226721 | 241073

Track 1

Filename F:\incoming\EAC\Various - 100 Greatest Film Themes (Disc 1)\01 - City Of Prague Philharmonic - 20th Century Fox Fanfare And Cinemascope Extension.wav

Pre-gap length 0:00:02.00

Peak level 94.3 %
Track quality 100.0 %
Test CRC 6C35567F
Copy CRC 6C35567F
Accurately ripped (confidence 2) [88C43EBF]
Copy OK

Track 2

Filename F:\incoming\EAC\Various - 100 Greatest Film Themes (Disc 1)\02 - City Of Prague Philharmonic - Gone With The Wind (Tara's Theme).wav

Peak level 82.7 %
Track quality 100.0 %
Test CRC 73889ED0
Copy CRC 73889ED0
Accurately ripped (confidence 2) [74D0ACFE]
Copy OK

Track 3

Filename F:\incoming\EAC\Various - 100 Greatest Film Themes (Disc 1)\03 - City Of Prague Philharmonic - Casablanca (As Time Goes By).wav

Peak level 96.6 %
Track quality 100.0 %
Test CRC 623DEB0E
Copy CRC 623DEB0E
Accurately ripped (confidence 2) [ED584DEE]
Copy OK

Track 4

Filename F:\incoming\EAC\Various - 100 Greatest Film Themes (Disc 1)\04 - Gertrud Huber - The Third Man (The Harry Lime Theme).wav

Peak level 86.8 %
Track quality 100.0 %
Test CRC EB991B4F
Copy CRC EB991B4F
Accurately ripped (confidence 2) [29C6523F]
Copy OK

Track 5

Filename F:\incoming\EAC\Various - 100 Greatest Film Themes (Disc 1)\05 - City Of Prague Philharmonic - High Noon (Do Not Forsake Me Oh My Darlin').wav

Peak level 89.4 %
Track quality 100.0 %
Test CRC 64A59018
Copy CRC 64A59018
Accurately ripped (confidence 2) [BBA37084]
Copy OK

Track 6

Filename F:\incoming\EAC\Various - 100 Greatest Film Themes (Disc 1)\06 - City Of Prague Philharmonic - The Dambusters (March).wav

Peak level 89.3 %
Track quality 100.0 %
Test CRC 3DD55DC1
Copy CRC 3DD55DC1
Accurately ripped (confidence 2) [90F0B281]
Copy OK

Track 7

Filename F:\incoming\EAC\Various - 100 Greatest Film Themes (Disc 1)\07 - N.Y. Jazz Orchestra - The Man With The Golden Arm (Main Theme).wav

Peak level 99.0 %
Track quality 100.0 %
Test CRC 81F2BDE3
Copy CRC 81F2BDE3
Accurately ripped (confidence 2) [5F82B031]
Copy OK

Track 8

Filename F:\incoming\EAC\Various - 100 Greatest Film Themes (Disc 1)\08 - City Of Prague Philharmonic - Around The World In 80 Days (Around The World In 80 Days).wav

Peak level 93.8 %
Track quality 100.0 %
Test CRC A1BC8E60
Copy CRC A1BC8E60
Accurately ripped (confidence 2) [74F54E6C]
Copy OK

Track 9

Filename F:\incoming\EAC\Various - 100 Greatest Film Themes (Disc 1)\09 - City Of Prague Philharmonic - The Bridge On The River Kwai (March).wav

Peak level 89.6 %
Track quality 99.9 %
Test CRC B0D60FAD
Copy CRC B0D60FAD
Accurately ripped (confidence 2) [63D1292B]
Copy OK

Track 10

Filename F:\incoming\EAC\Various - 100 Greatest Film Themes (Disc 1)\10 - City Of Prague Philharmonic - The Big Country (Main Theme).wav

Peak level 90.5 %
Track quality 100.0 %
Test CRC 6612856E
Copy CRC 6612856E
Accurately ripped (confidence 2) [B9DF720B]
Copy OK

Track 11

Filename F:\incoming\EAC\Various - 100 Greatest Film Themes (Disc 1)\11 - City Of Prague Philharmonic - North By Northwest (Overture).wav

Peak level 97.2 %
Track quality 99.9 %
Test CRC B84F7DA4
Copy CRC B84F7DA4
Accurately ripped (confidence 2) [1AE9DC2A]
Copy OK

Track 12

Filename F:\incoming\EAC\Various - 100 Greatest Film Themes (Disc 1)\12 - City Of Prague Philharmonic - Ben-Hur (Parade Of The Chariotees).wav

Peak level 94.0 %
Track quality 100.0 %
Test CRC D6E18CAD
Copy CRC D6E18CAD
Accurately ripped (confidence 2) [FE5C9BE6]
Copy OK

Track 13

Filename F:\incoming\EAC\Various - 100 Greatest Film Themes (Disc 1)\13 - City Of Prague Philharmonic - A Summer Place (Young Love).wav

Peak level 95.2 %
Track quality 100.0 %
Test CRC 9E39491B
Copy CRC 9E39491B
Accurately ripped (confidence 2) [2AD42131]
Copy OK

Track 14

Filename F:\incoming\EAC\Various - 100 Greatest Film Themes (Disc 1)\14 - City Of Prague Philharmonic - The Magnificent Seven (Main Theme).wav

Peak level 98.4 %
Track quality 100.0 %
Test CRC C3B908A8
Copy CRC C3B908A8
Accurately ripped (confidence 2) [79ACD977]
Copy OK

Track 15

Filename F:\incoming\EAC\Various - 100 Greatest Film Themes (Disc 1)\15 - City Of Prague Philharmonic - Psycho (Main Theme , Murder).wav

Peak level 88.8 %
Track quality 100.0 %
Test CRC B49FC95D
Copy CRC B49FC95D
Accurately ripped (confidence 2) [D79E57C5]
Copy OK

Track 16

Filename F:\incoming\EAC\Various - 100 Greatest Film Themes (Disc 1)\16 - City Of Prague Philharmonic - Exodus (Overture).wav

Peak level 96.7 %
Track quality 100.0 %
Test CRC 3CB6EBC4
Copy CRC 3CB6EBC4
Accurately ripped (confidence 2) [E4DE096B]
Copy OK

Track 17

Filename F:\incoming\EAC\Various - 100 Greatest Film Themes (Disc 1)\17 - City Of Prague Philharmonic - Breakfast At Tiffany's (Moon River).wav

Peak level 99.0 %
Track quality 100.0 %
Test CRC 6DB8A7F3
Copy CRC 6DB8A7F3
Accurately ripped (confidence 2) [CB5B1D23]
Copy OK

All tracks accurately ripped

No errors occurred

End of status report
Exact Audio Copy V0.99 prebeta 5 from 4. May 2009

EAC extraction logfile from 16. August 2009, 12:43

Various / 100 Greatest Film Themes (Disc 2)

Used drive : PIONEER DVD-RW DVR-108 Adapter: 0 ID: 1

Read mode : Secure
Utilize accurate stream : Yes
Defeat audio cache : Yes
Make use of C2 pointers : No

Read offset correction : 48
Overread into Lead-In and Lead-Out : Yes
Fill up missing offset samples with silence : Yes
Delete leading and trailing silent blocks : No
Null samples used in CRC calculations : Yes
Used interface : Native Win32 interface for Win NT & 2000
Gap handling : Appended to previous track

Used output format : User Defined Encoder
Selected bitrate : 768 kBit/s
Quality : High
Add ID3 tag : No
Command line compressor : C:\Program Files (x86)\FLAC\flac.exe
Additional command line options : -V -8 -T "artist=%a" -T "title=%t" -T "album=%g" -T "date=%y" -T "tracknumber=%n" -T "genre=%m" %s

TOC of the extracted CD

Track | Start | Length | Start sector | End sector
---------------------------------------------------------
1 | 0:00.00 | 4:24.05 | 0 | 19804
2 | 4:24.05 | 2:25.55 | 19805 | 30734
3 | 6:49.60 | 1:56.56 | 30735 | 39490
4 | 8:46.41 | 2:48.25 | 39491 | 52115
5 | 11:34.66 | 2:17.31 | 52116 | 62421
6 | 13:52.22 | 2:58.14 | 62422 | 75785
7 | 16:50.36 | 4:21.08 | 75786 | 95368
8 | 21:11.44 | 3:17.49 | 95369 | 110192
9 | 24:29.18 | 2:34.64 | 110193 | 121806
10 | 27:04.07 | 2:52.52 | 121807 | 134758
11 | 29:56.59 | 2:32.65 | 134759 | 146223
12 | 32:29.49 | 3:00.42 | 146224 | 159765
13 | 35:30.16 | 2:39.20 | 159766 | 171710
14 | 38:09.36 | 2:42.65 | 171711 | 183925
15 | 40:52.26 | 1:50.68 | 183926 | 192243
16 | 42:43.19 | 1:29.60 | 192244 | 198978

Track 1

Filename F:\incoming\EAC\Various - 100 Greatest Film Themes (Disc 2)\01 - City Of Prague Philharmonic - Lawrence Of Arabia (Overture).wav

Pre-gap length 0:00:02.00

Peak level 96.4 %
Track quality 100.0 %
Test CRC F966EFEE
Copy CRC F966EFEE
Accurately ripped (confidence 2) [8A8FDFD4]
Copy OK

Track 2

Filename F:\incoming\EAC\Various - 100 Greatest Film Themes (Disc 2)\02 - City Of Prague Philharmonic - Hatari (Baby Elephant Walk).wav

Peak level 89.9 %
Track quality 100.0 %
Test CRC 4B1BA5DE
Copy CRC 4B1BA5DE
Accurately ripped (confidence 2) [74246CCF]
Copy OK

Track 3

Filename F:\incoming\EAC\Various - 100 Greatest Film Themes (Disc 2)\03 - City Of Prague Philharmonic - Dr. No (The James Bond Theme).wav

Peak level 91.8 %
Track quality 100.0 %
Test CRC C39FD03E
Copy CRC C39FD03E
Accurately ripped (confidence 2) [8D601EE8]
Copy OK

Track 4

Filename F:\incoming\EAC\Various - 100 Greatest Film Themes (Disc 2)\04 - Royal Philharmonic Concert Orchestra - The Pink Panther (The Pink Panther Theme).wav

Peak level 100.0 %
Track quality 99.9 %
Test CRC 982740E5
Copy CRC 982740E5
Accurately ripped (confidence 2) [B91415E5]
Copy OK

Track 5

Filename F:\incoming\EAC\Various - 100 Greatest Film Themes (Disc 2)\05 - City Of Prague Philharmonic - The Great Escape (Main Title).wav

Peak level 94.2 %
Track quality 100.0 %
Test CRC CA011B9F
Copy CRC CA011B9F
Accurately ripped (confidence 2) [F4B0F82D]
Copy OK

Track 6

Filename F:\incoming\EAC\Various - 100 Greatest Film Themes (Disc 2)\06 - City Of Prague Philharmonic - 633 Aquadron (Main Title).wav

Peak level 96.3 %
Track quality 100.0 %
Test CRC BFADBF7C
Copy CRC BFADBF7C
Accurately ripped (confidence 2) [6513BA64]
Copy OK

Track 7

Filename F:\incoming\EAC\Various - 100 Greatest Film Themes (Disc 2)\07 - City Of Prague Philharmonic - Zorba The Greek (Zorba's Dance).wav

Peak level 83.0 %
Track quality 100.0 %
Test CRC DBB285CD
Copy CRC DBB285CD
Accurately ripped (confidence 2) [9781F958]
Copy OK

Track 8

Filename F:\incoming\EAC\Various - 100 Greatest Film Themes (Disc 2)\08 - City Of Prague Philharmonic - Doctor Zhivago (Lara's Theme).wav

Peak level 93.7 %
Track quality 100.0 %
Test CRC 15A2E039
Copy CRC 15A2E039
Accurately ripped (confidence 2) [45C95A92]
Copy OK

Track 9

Filename F:\incoming\EAC\Various - 100 Greatest Film Themes (Disc 2)\09 - City Of Prague Philharmonic - Born Free (Born Free).wav

Peak level 99.9 %
Track quality 100.0 %
Test CRC 78B9781D
Copy CRC 78B9781D
Accurately ripped (confidence 2) [B63CEB97]
Copy OK

Track 10

Filename F:\incoming\EAC\Various - 100 Greatest Film Themes (Disc 2)\10 - City Of Prague Philharmonic - The Good, The Bad And The Ugly (Main Title).wav

Peak level 88.7 %
Track quality 99.9 %
Test CRC 00B9FFDC
Copy CRC 00B9FFDC
Accurately ripped (confidence 2) [318A95CF]
Copy OK

Track 11

Filename F:\incoming\EAC\Various - 100 Greatest Film Themes (Disc 2)\11 - City Of Prague Philharmonic - Casino Royale (Theme).wav

Peak level 78.4 %
Track quality 100.0 %
Test CRC 2DBD5E89
Copy CRC 2DBD5E89
Accurately ripped (confidence 2) [0D5C1354]
Copy OK

Track 12

Filename F:\incoming\EAC\Various - 100 Greatest Film Themes (Disc 2)\12 - City Of Prague Philharmonic - The Thomas Crown Affair (The Windmills Of Your Mind).wav

Peak level 85.6 %
Track quality 100.0 %
Test CRC C341C2EC
Copy CRC C341C2EC
Accurately ripped (confidence 2) [53CDA768]
Copy OK

Track 13

Filename F:\incoming\EAC\Various - 100 Greatest Film Themes (Disc 2)\13 - N.Y. Jazz Orchestra - Bullitt (Main Theme).wav

Peak level 86.8 %
Track quality 100.0 %
Test CRC 4F779EE6
Copy CRC 4F779EE6
Accurately ripped (confidence 2) [7E07A21E]
Copy OK

Track 14

Filename F:\incoming\EAC\Various - 100 Greatest Film Themes (Disc 2)\14 - City Of Prague Philharmonic - Romeo And Juliet (Love Theme).wav

Peak level 84.9 %
Track quality 100.0 %
Test CRC 2F701B1E
Copy CRC 2F701B1E
Accurately ripped (confidence 2) [F7F84BDE]
Copy OK

Track 15

Filename F:\incoming\EAC\Various - 100 Greatest Film Themes (Disc 2)\15 - City Of Prague Philharmonic - 2001- A Space Odyssey (Also Sprach Zarathustra).wav

Peak level 98.3 %
Track quality 99.9 %
Test CRC 1BDEAEA0
Copy CRC 1BDEAEA0
Accurately ripped (confidence 2) [22B21482]
Copy OK

Track 16

Filename F:\incoming\EAC\Various - 100 Greatest Film Themes (Disc 2)\16 - City Of Prague Philharmonic - Twisted Nerve (Main Theme).wav

Peak level 92.0 %
Track quality 100.0 %
Test CRC 453D2E2E
Copy CRC 453D2E2E
Accurately ripped (confidence 2) [9512CDAB]
Copy OK

All tracks accurately ripped

No errors occurred

End of status report
Exact Audio Copy V0.99 prebeta 5 from 4. May 2009

EAC extraction logfile from 16. August 2009, 21:09

Various / 100 Greatest Film Themes (Disc 3)

Used drive : PIONEER DVD-RW DVR-108 Adapter: 0 ID: 1

Read mode : Secure
Utilize accurate stream : Yes
Defeat audio cache : Yes
Make use of C2 pointers : No

Read offset correction : 48
Overread into Lead-In and Lead-Out : Yes
Fill up missing offset samples with silence : Yes
Delete leading and trailing silent blocks : No
Null samples used in CRC calculations : Yes
Used interface : Native Win32 interface for Win NT & 2000
Gap handling : Appended to previous track

Used output format : User Defined Encoder
Selected bitrate : 768 kBit/s
Quality : High
Add ID3 tag : No
Command line compressor : C:\Program Files (x86)\FLAC\flac.exe
Additional command line options : -V -8 -T "artist=%a" -T "title=%t" -T "album=%g" -T "date=%y" -T "tracknumber=%n" -T "genre=%m" %s

TOC of the extracted CD

Track | Start | Length | Start sector | End sector
---------------------------------------------------------
1 | 0:00.00 | 6:08.08 | 0 | 27607
2 | 6:08.08 | 3:59.61 | 27608 | 45593
3 | 10:07.69 | 3:11.48 | 45594 | 59966
4 | 13:19.42 | 4:48.38 | 59967 | 81604
5 | 18:08.05 | 3:13.04 | 81605 | 96083
6 | 21:21.09 | 3:38.04 | 96084 | 112437
7 | 24:59.13 | 2:45.35 | 112438 | 124847
8 | 27:44.48 | 3:06.29 | 124848 | 138826
9 | 30:51.02 | 3:30.29 | 138827 | 154605
10 | 34:21.31 | 2:16.55 | 154606 | 164860
11 | 36:38.11 | 4:08.39 | 164861 | 183499
12 | 40:46.50 | 3:21.16 | 183500 | 198590
13 | 44:07.66 | 2:53.57 | 198591 | 211622
14 | 47:01.48 | 4:38.33 | 211623 | 232505
15 | 51:40.06 | 6:43.05 | 232506 | 262735
16 | 58:23.11 | 3:18.71 | 262736 | 277656
17 | 61:42.07 | 4:15.46 | 277657 | 296827

Track 1

Filename F:\incoming\EAC\Various - 100 Greatest Film Themes (Disc 3)\01 - City of Prague Philharmonic - Once Upon a Time in the West (Jill's Theme).wav

Pre-gap length 0:00:02.00

Peak level 92.3 %
Track quality 100.0 %
Test CRC 80FAF4DA
Copy CRC 80FAF4DA
Accurately ripped (confidence 2) [768CC1A2]
Copy OK

Track 2

Filename F:\incoming\EAC\Various - 100 Greatest Film Themes (Disc 3)\02 - City of Prague Philharmonic - Midnight Cowboy (Midnight Cowboy).wav

Peak level 92.0 %
Track quality 100.0 %
Test CRC 25566B2A
Copy CRC 25566B2A
Accurately ripped (confidence 2) [97054AB8]
Copy OK

Track 3

Filename F:\incoming\EAC\Various - 100 Greatest Film Themes (Disc 3)\03 - City of Prague Philharmonic - Butch Cassidy and the Sundance Kid (Raindrops keep fallin' on my Head).wav

Peak level 94.4 %
Track quality 100.0 %
Test CRC 7136F43D
Copy CRC 7136F43D
Accurately ripped (confidence 2) [09D7D9FE]
Copy OK

Track 4

Filename F:\incoming\EAC\Various - 100 Greatest Film Themes (Disc 3)\04 - City of Prague Philharmonic - Love Story (Love Story).wav

Peak level 97.7 %
Track quality 100.0 %
Test CRC 58147464
Copy CRC 58147464
Accurately ripped (confidence 2) [1F12F0DB]
Copy OK

Track 5

Filename F:\incoming\EAC\Various - 100 Greatest Film Themes (Disc 3)\05 - N.Y. Jazz Orchestra - Dirty Harry (Main Title).wav

Peak level 87.8 %
Track quality 100.0 %
Test CRC E7A48484
Copy CRC E7A48484
Accurately ripped (confidence 2) [1FFB3DED]
Copy OK

Track 6

Filename F:\incoming\EAC\Various - 100 Greatest Film Themes (Disc 3)\06 - City of Prague Philharmonic - Summer of '42 (Summer of '42).wav

Peak level 83.7 %
Track quality 100.0 %
Test CRC 90D8A4CE
Copy CRC 90D8A4CE
Accurately ripped (confidence 2) [9B5A66F2]
Copy OK

Track 7

Filename F:\incoming\EAC\Various - 100 Greatest Film Themes (Disc 3)\07 - City of Prague Philharmonic - The Godfather (Speak Softly Love).wav

Peak level 99.9 %
Track quality 100.0 %
Test CRC B04C2296
Copy CRC B04C2296
Accurately ripped (confidence 2) [16246697]
Copy OK

Track 8

Filename F:\incoming\EAC\Various - 100 Greatest Film Themes (Disc 3)\08 - Keith Billik,Derek Smith - Deliverance (Duelling Banjos).wav

Peak level 99.4 %
Track quality 100.0 %
Test CRC 940BF741
Copy CRC 940BF741
Accurately ripped (confidence 2) [3C790278]
Copy OK

Track 9

Filename F:\incoming\EAC\Various - 100 Greatest Film Themes (Disc 3)\09 - Mark Ayres - The Exorcist (Tubular Bells).wav

Peak level 90.1 %
Track quality 100.0 %
Test CRC B02EBD5A
Copy CRC B02EBD5A
Accurately ripped (confidence 2) [BF86F70D]
Copy OK

Track 10

Filename F:\incoming\EAC\Various - 100 Greatest Film Themes (Disc 3)\10 - City of Prague Philharmonic - Jaws (Main Title).wav

Peak level 97.4 %
Track quality 100.0 %
Test CRC 5C24154F
Copy CRC 5C24154F
Accurately ripped (confidence 2) [EC4FA23B]
Copy OK

Track 11

Filename F:\incoming\EAC\Various - 100 Greatest Film Themes (Disc 3)\11 - City of Prague Philharmonic - Barry Lyndon (Sarabande).wav

Peak level 96.7 %
Track quality 100.0 %
Test CRC C57AD7CB
Copy CRC C57AD7CB
Accurately ripped (confidence 2) [5230DA85]
Copy OK

Track 12

Filename F:\incoming\EAC\Various - 100 Greatest Film Themes (Disc 3)\12 - City of Prague Philharmonic - Taxi Driver (Main Theme).wav

Peak level 95.5 %
Track quality 99.9 %
Test CRC 09B9CE8D
Copy CRC 09B9CE8D
Accurately ripped (confidence 2) [4503A1D1]
Copy OK

Track 13

Filename F:\incoming\EAC\Various - 100 Greatest Film Themes (Disc 3)\13 - London Soul Singers,London Screen Orchestra - Rocky (Gonna fly now).wav

Peak level 90.2 %
Track quality 100.0 %
Test CRC 9E29181D
Copy CRC 9E29181D
Accurately ripped (confidence 2) [7A6AA1B2]
Copy OK

Track 14

Filename F:\incoming\EAC\Various - 100 Greatest Film Themes (Disc 3)\14 - City of Prague Philharmonic - Star Wars- A New Hope (Main Theme).wav

Peak level 100.0 %
Track quality 100.0 %
Test CRC 9A2CEE37
Copy CRC 9A2CEE37
Accurately ripped (confidence 2) [237F4A84]
Copy OK

Track 15

Filename F:\incoming\EAC\Various - 100 Greatest Film Themes (Disc 3)\15 - City of Prague Philharmonic - Close Encounters of the Third Kind (Main Title , Resolution and Finale).wav

Peak level 96.8 %
Track quality 100.0 %
Test CRC 706CF706
Copy CRC 706CF706
Accurately ripped (confidence 2) [4B3C51B9]
Copy OK

Track 16

Filename F:\incoming\EAC\Various - 100 Greatest Film Themes (Disc 3)\16 - City of Prague Philharmonic - The Deer Hunter (Cavatina).wav

Peak level 85.2 %
Track quality 100.0 %
Test CRC CDBDD524
Copy CRC CDBDD524
Accurately ripped (confidence 2) [F5ED1767]
Copy OK

Track 17

Filename F:\incoming\EAC\Various - 100 Greatest Film Themes (Disc 3)\17 - City of Prague Philharmonic - Superman (Main Theme).wav

Peak level 75.4 %
Track quality 100.0 %
Test CRC 9F9C366C
Copy CRC 9F9C366C
Accurately ripped (confidence 2) [E33611B7]
Copy OK

All tracks accurately ripped

No errors occurred

End of status report
Exact Audio Copy V0.99 prebeta 5 from 4. May 2009

EAC extraction logfile from 16. August 2009, 21:31

Various / 100 Greatest Film Themes (Disc 4)

Used drive : PIONEER DVD-RW DVR-108 Adapter: 0 ID: 1

Read mode : Secure
Utilize accurate stream : Yes
Defeat audio cache : Yes
Make use of C2 pointers : No

Read offset correction : 48
Overread into Lead-In and Lead-Out : Yes
Fill up missing offset samples with silence : Yes
Delete leading and trailing silent blocks : No
Null samples used in CRC calculations : Yes
Used interface : Native Win32 interface for Win NT & 2000
Gap handling : Appended to previous track

Used output format : User Defined Encoder
Selected bitrate : 768 kBit/s
Quality : High
Add ID3 tag : No
Command line compressor : C:\Program Files (x86)\FLAC\flac.exe
Additional command line options : -V -8 -T "artist=%a" -T "title=%t" -T "album=%g" -T "date=%y" -T "tracknumber=%n" -T "genre=%m" %s

TOC of the extracted CD

Track | Start | Length | Start sector | End sector
---------------------------------------------------------
1 | 0:00.00 | 2:09.38 | 0 | 9712
2 | 2:09.38 | 6:13.49 | 9713 | 37736
3 | 8:23.12 | 3:31.70 | 37737 | 53631
4 | 11:55.07 | 2:07.35 | 53632 | 63191
5 | 14:02.42 | 4:41.08 | 63192 | 84274
6 | 18:43.50 | 4:44.65 | 84275 | 105639
7 | 23:28.40 | 5:37.52 | 105640 | 130966
8 | 29:06.17 | 4:45.07 | 130967 | 152348
9 | 33:51.24 | 3:26.61 | 152349 | 167859
10 | 37:18.10 | 4:28.03 | 167860 | 187962
11 | 41:46.13 | 3:25.20 | 187963 | 203357
12 | 45:11.33 | 2:21.39 | 203358 | 213971
13 | 47:32.72 | 3:33.74 | 213972 | 230020
14 | 51:06.71 | 3:06.72 | 230021 | 244042
15 | 54:13.68 | 2:30.57 | 244043 | 255349
16 | 56:44.50 | 2:35.05 | 255350 | 266979

Track 1

Filename F:\incoming\EAC\Various - 100 Greatest Film Themes (Disc 4)\01 - Greatest Film City Of Prague Philharmonic - Star Trek- The Motion Picture (End Titles).wav

Pre-gap length 0:00:02.00

Peak level 89.0 %
Track quality 99.9 %
Test CRC FB41C3DF
Copy CRC FB41C3DF
Accurately ripped (confidence 2) [DF66C946]
Copy OK

Track 2

Filename F:\incoming\EAC\Various - 100 Greatest Film Themes (Disc 4)\02 - City Of Prague Philharmonic - Somewhere In Time (Somewhere In Time).wav

Peak level 94.2 %
Track quality 100.0 %
Test CRC 5ACF8744
Copy CRC 5ACF8744
Accurately ripped (confidence 2) [EE9AEFAE]
Copy OK

Track 3

Filename F:\incoming\EAC\Various - 100 Greatest Film Themes (Disc 4)\03 - Mark Ayres - Chariots Of Fire (Titles).wav

Peak level 75.8 %
Track quality 100.0 %
Test CRC 1DC9A927
Copy CRC 1DC9A927
Accurately ripped (confidence 2) [E6A4FF58]
Copy OK

Track 4

Filename F:\incoming\EAC\Various - 100 Greatest Film Themes (Disc 4)\04 - City Of Prague Philharmonic - Raiders Of The Lost Ark (The Raiders March).wav

Peak level 96.2 %
Track quality 100.0 %
Test CRC C63977F9
Copy CRC C63977F9
Accurately ripped (confidence 2) [AB6042EC]
Copy OK

Track 5

Filename F:\incoming\EAC\Various - 100 Greatest Film Themes (Disc 4)\05 - City Of Prague Philharmonic - E.T. The Extraterrestrial (Bicycle Chase & End Credits).wav

Peak level 90.6 %
Track quality 100.0 %
Test CRC 3D4C8947
Copy CRC 3D4C8947
Accurately ripped (confidence 2) [37798205]
Copy OK

Track 6

Filename F:\incoming\EAC\Various - 100 Greatest Film Themes (Disc 4)\06 - Mark Ayres - Merry Christmas, Mr. Lawrence (Merry Christmas, Mr. Lawrence).wav

Peak level 79.5 %
Track quality 100.0 %
Test CRC B1307F43
Copy CRC B1307F43
Accurately ripped (confidence 2) [7828579C]
Copy OK

Track 7

Filename F:\incoming\EAC\Various - 100 Greatest Film Themes (Disc 4)\07 - City Of Prague Philharmonic - The Natural (The Natural).wav

Peak level 83.5 %
Track quality 99.9 %
Test CRC 36E4511F
Copy CRC 36E4511F
Accurately ripped (confidence 2) [B30F1DDF]
Copy OK

Track 8

Filename F:\incoming\EAC\Various - 100 Greatest Film Themes (Disc 4)\08 - City Of Prague Philharmonic - Once Upon A Time In America (Deborah's Theme).wav

Peak level 100.0 %
Track quality 100.0 %
Test CRC 43752327
Copy CRC 43752327
Accurately ripped (confidence 2) [35DD1BDE]
Copy OK

Track 9

Filename F:\incoming\EAC\Various - 100 Greatest Film Themes (Disc 4)\09 - City Of Prague Philharmonic - Back To The Future (Main Theme).wav

Peak level 94.6 %
Track quality 100.0 %
Test CRC 9D41BBAD
Copy CRC 9D41BBAD
Accurately ripped (confidence 2) [D2A8C0A5]
Copy OK

Track 10

Filename F:\incoming\EAC\Various - 100 Greatest Film Themes (Disc 4)\10 - City Of Prague Philharmonic - Out Of Africa (Main Theme).wav

Peak level 89.1 %
Track quality 100.0 %
Test CRC 239C13F2
Copy CRC 239C13F2
Accurately ripped (confidence 2) [53B87231]
Copy OK

Track 11

Filename F:\incoming\EAC\Various - 100 Greatest Film Themes (Disc 4)\11 - City Of Prague Philharmonic - Jean De Florette (Jean De Florette).wav

Peak level 96.4 %
Track quality 100.0 %
Test CRC B5318E40
Copy CRC B5318E40
Accurately ripped (confidence 2) [B45DED71]
Copy OK

Track 12

Filename F:\incoming\EAC\Various - 100 Greatest Film Themes (Disc 4)\12 - City Of Prague Philharmonic - The Mission (Gabriel's Oboe).wav

Peak level 85.8 %
Track quality 100.0 %
Test CRC 90DCF4C9
Copy CRC 90DCF4C9
Accurately ripped (confidence 2) [C82E7EDB]
Copy OK

Track 13

Filename F:\incoming\EAC\Various - 100 Greatest Film Themes (Disc 4)\13 - City Of Prague Philharmonic - Cinema Paradiso (Love Theme).wav

Peak level 87.2 %
Track quality 100.0 %
Test CRC 5C71CA29
Copy CRC 5C71CA29
Accurately ripped (confidence 2) [AE2F3A23]
Copy OK

Track 14

Filename F:\incoming\EAC\Various - 100 Greatest Film Themes (Disc 4)\14 - City Of Prague Philharmonic - Batman (The Batman Theme).wav

Peak level 94.1 %
Track quality 99.9 %
Test CRC 47843F70
Copy CRC 47843F70
Accurately ripped (confidence 2) [A0E8C226]
Copy OK

Track 15

Filename F:\incoming\EAC\Various - 100 Greatest Film Themes (Disc 4)\15 - City Of Prague Philharmonic - Dance With The Wolves (The John Dunbar Theme).wav

Peak level 95.3 %
Track quality 99.9 %
Test CRC 85B5A06B
Copy CRC 85B5A06B
Accurately ripped (confidence 2) [88DA4881]
Copy OK

Track 16

Filename F:\incoming\EAC\Various - 100 Greatest Film Themes (Disc 4)\16 - City Of Prague Philharmonic - Edward Scissorhands (Main Title).wav

Peak level 96.6 %
Track quality 99.9 %
Test CRC F827E187
Copy CRC F827E187
Accurately ripped (confidence 2) [D7114C57]
Copy OK

All tracks accurately ripped

No errors occurred

End of status report
Exact Audio Copy V0.99 prebeta 5 from 4. May 2009

EAC extraction logfile from 20. August 2009, 22:37

Various / 100 Greatest Film Themes (Disc 5)

Used drive : PIONEER DVD-RW DVR-108 Adapter: 0 ID: 1

Read mode : Secure
Utilize accurate stream : Yes
Defeat audio cache : Yes
Make use of C2 pointers : No

Read offset correction : 48
Overread into Lead-In and Lead-Out : Yes
Fill up missing offset samples with silence : Yes
Delete leading and trailing silent blocks : No
Null samples used in CRC calculations : Yes
Used interface : Native Win32 interface for Win NT & 2000
Gap handling : Appended to previous track

Used output format : User Defined Encoder
Selected bitrate : 768 kBit/s
Quality : High
Add ID3 tag : No
Command line compressor : C:\Program Files (x86)\FLAC\flac.exe
Additional command line options : -V -8 -T "artist=%a" -T "title=%t" -T "album=%g" -T "date=%y" -T "tracknumber=%n" -T "genre=%m" %s

TOC of the extracted CD

Track | Start | Length | Start sector | End sector
---------------------------------------------------------
1 | 0:00.00 | 3:42.61 | 0 | 16710
2 | 3:42.61 | 3:03.16 | 16711 | 30451
3 | 6:46.02 | 5:07.48 | 30452 | 53524
4 | 11:53.50 | 2:39.33 | 53525 | 65482
5 | 14:33.08 | 6:00.41 | 65483 | 92523
6 | 20:33.49 | 3:45.54 | 92524 | 109452
7 | 24:19.28 | 3:45.29 | 109453 | 126356
8 | 28:04.57 | 4:03.62 | 126357 | 144643
9 | 32:08.44 | 4:37.61 | 144644 | 165479
10 | 36:46.30 | 3:41.49 | 165480 | 182103
11 | 40:28.04 | 4:39.16 | 182104 | 203044
12 | 45:07.20 | 5:42.10 | 203045 | 228704
13 | 50:49.30 | 4:07.66 | 228705 | 247295
14 | 54:57.21 | 4:32.69 | 247296 | 267764
15 | 59:30.15 | 1:50.28 | 267765 | 276042
16 | 61:20.43 | 5:03.70 | 276043 | 298837
17 | 66:24.38 | 6:04.06 | 298838 | 326143

Track 1

Filename F:\incoming\EAC\Various - 100 Greatest Film Themes (Disc 5)\01 - City Of Prague Philharmonic - Ghost (Unchained Melody).wav

Pre-gap length 0:00:02.00

Peak level 100.0 %
Track quality 99.9 %
Test CRC D27B8187
Copy CRC D27B8187
Accurately ripped (confidence 2) [5DF9C47C]
Copy OK

Track 2

Filename F:\incoming\EAC\Various - 100 Greatest Film Themes (Disc 5)\02 - City Of Prague Philharmonic - Robin Hood- Prince Of Thieves (Main Title).wav

Peak level 92.5 %
Track quality 100.0 %
Test CRC 858C51CB
Copy CRC 858C51CB
Accurately ripped (confidence 2) [D912102D]
Copy OK

Track 3

Filename F:\incoming\EAC\Various - 100 Greatest Film Themes (Disc 5)\03 - City Of Prague Philharmonic - 1492- Conquest Of Paradise (1492- Conquest Of Paradise).wav

Peak level 89.7 %
Track quality 100.0 %
Test CRC 6D30C73E
Copy CRC 6D30C73E
Accurately ripped (confidence 2) [1FF01303]
Copy OK

Track 4

Filename F:\incoming\EAC\Various - 100 Greatest Film Themes (Disc 5)\04 - City Of Prague Philharmonic - The Last Of The Mohicans (Main Title).wav

Peak level 100.0 %
Track quality 100.0 %
Test CRC 651D7DC9
Copy CRC 651D7DC9
Accurately ripped (confidence 2) [D4F40E83]
Copy OK

Track 5

Filename F:\incoming\EAC\Various - 100 Greatest Film Themes (Disc 5)\05 - City Of Prague Philharmonic - Jurassic Park (Suite).wav

Peak level 89.8 %
Track quality 100.0 %
Test CRC 28A8B13D
Copy CRC 28A8B13D
Accurately ripped (confidence 2) [E4481E36]
Copy OK

Track 6

Filename F:\incoming\EAC\Various - 100 Greatest Film Themes (Disc 5)\06 - Dan Head - True Romance (You're So Cool).wav

Peak level 87.2 %
Track quality 100.0 %
Test CRC DE6CBEF4
Copy CRC DE6CBEF4
Accurately ripped (confidence 2) [9E6EDA42]
Copy OK

Track 7

Filename F:\incoming\EAC\Various - 100 Greatest Film Themes (Disc 5)\07 - City Of Prague Philharmonic - The Piano (The Heart Asks Pleasure First).wav

Peak level 98.7 %
Track quality 100.0 %
Test CRC CA2CE35B
Copy CRC CA2CE35B
Accurately ripped (confidence 2) [4B890170]
Copy OK

Track 8

Filename F:\incoming\EAC\Various - 100 Greatest Film Themes (Disc 5)\08 - City Of Prague Philharmonic - Schindler's List (Schindler's List).wav

Peak level 100.0 %
Track quality 100.0 %
Test CRC FBA6A53F
Copy CRC FBA6A53F
Accurately ripped (confidence 2) [4B7E8D24]
Copy OK

Track 9

Filename F:\incoming\EAC\Various - 100 Greatest Film Themes (Disc 5)\09 - City Of Prague Philharmonic - Il Postino (Girl On A Bicycle).wav

Peak level 100.0 %
Track quality 100.0 %
Test CRC 6C85C638
Copy CRC 6C85C638
Accurately ripped (confidence 2) [0F96E349]
Copy OK

Track 10

Filename F:\incoming\EAC\Various - 100 Greatest Film Themes (Disc 5)\10 - City Of Prague Philharmonic - The Shawshank Redemption (End Titles).wav

Peak level 93.9 %
Track quality 100.0 %
Test CRC AAD0CFF2
Copy CRC AAD0CFF2
Accurately ripped (confidence 2) [EC15FC2B]
Copy OK

Track 11

Filename F:\incoming\EAC\Various - 100 Greatest Film Themes (Disc 5)\11 - City Of Prague Philharmonic - Braveheart (End Titles).wav

Peak level 95.4 %
Track quality 100.0 %
Test CRC 4329B687
Copy CRC 4329B687
Accurately ripped (confidence 2) [4C73A2B5]
Copy OK

Track 12

Filename F:\incoming\EAC\Various - 100 Greatest Film Themes (Disc 5)\12 - City Of Prague Philharmonic - William Shakespeare's Romeo + Juliet (The Balcony Scene).wav

Peak level 93.7 %
Track quality 100.0 %
Test CRC 4FE09535
Copy CRC 4FE09535
Accurately ripped (confidence 2) [AED99D3B]
Copy OK

Track 13

Filename F:\incoming\EAC\Various - 100 Greatest Film Themes (Disc 5)\13 - City Of Prague Philharmonic - The English Patient (As Far As Florence , Rupert Bear).wav

Peak level 91.8 %
Track quality 100.0 %
Test CRC 4A060D47
Copy CRC 4A060D47
Accurately ripped (confidence 2) [755936EA]
Copy OK

Track 14

Filename F:\incoming\EAC\Various - 100 Greatest Film Themes (Disc 5)\14 - City Of Prague Philharmonic - Dragonheart (Main Themes).wav

Peak level 97.2 %
Track quality 99.9 %
Test CRC 99B549CF
Copy CRC 99B549CF
Accurately ripped (confidence 2) [0AAB6242]
Copy OK

Track 15

Filename F:\incoming\EAC\Various - 100 Greatest Film Themes (Disc 5)\15 - City Of Prague Philharmonic - Airforce One (Main Title).wav

Peak level 77.8 %
Track quality 100.0 %
Test CRC 52C8A855
Copy CRC 52C8A855
Accurately ripped (confidence 2) [1528D676]
Copy OK

Track 16

Filename F:\incoming\EAC\Various - 100 Greatest Film Themes (Disc 5)\16 - City Of Prague Philharmonic - Titanic (My Heart Will Go On).wav

Peak level 86.0 %
Track quality 100.0 %
Test CRC F3FD1CB7
Copy CRC F3FD1CB7
Accurately ripped (confidence 2) [CC81A469]
Copy OK

Track 17

Filename F:\incoming\EAC\Various - 100 Greatest Film Themes (Disc 5)\17 - City Of Prague Philharmonic - Saving Private Ryan (Hymn To The Fallen).wav

Peak level 92.1 %
Track quality 100.0 %
Test CRC EA535B92
Copy CRC EA535B92
Accurately ripped (confidence 2) [55219A9E]
Copy OK

All tracks accurately ripped

No errors occurred

End of status report
Exact Audio Copy V0.99 prebeta 5 from 4. May 2009

EAC extraction logfile from 22. August 2009, 0:02

Various / 100 Greatest Film Themes (Disc 6)

Used drive : PIONEER DVD-RW DVR-108 Adapter: 0 ID: 1

Read mode : Secure
Utilize accurate stream : Yes
Defeat audio cache : Yes
Make use of C2 pointers : No

Read offset correction : 48
Overread into Lead-In and Lead-Out : Yes
Fill up missing offset samples with silence : Yes
Delete leading and trailing silent blocks : No
Null samples used in CRC calculations : Yes
Used interface : Native Win32 interface for Win NT & 2000
Gap handling : Appended to previous track

Used output format : User Defined Encoder
Selected bitrate : 768 kBit/s
Quality : High
Add ID3 tag : No
Command line compressor : C:\Program Files (x86)\FLAC\flac.exe
Additional command line options : -V -8 -T "artist=%a" -T "title=%t" -T "album=%g" -T "date=%y" -T "tracknumber=%n" -T "genre=%m" %s

TOC of the extracted CD

Track | Start | Length | Start sector | End sector
---------------------------------------------------------
1 | 0:00.00 | 3:53.42 | 0 | 17516
2 | 3:53.42 | 3:54.51 | 17517 | 35117
3 | 7:48.18 | 4:09.36 | 35118 | 53828
4 | 11:57.54 | 4:26.32 | 53829 | 73810
5 | 16:24.11 | 5:52.35 | 73811 | 100245
6 | 22:16.46 | 4:51.23 | 100246 | 122093
7 | 27:07.69 | 4:48.01 | 122094 | 143694
8 | 31:55.70 | 4:37.06 | 143695 | 164475
9 | 36:33.01 | 4:22.10 | 164476 | 184135
10 | 40:55.11 | 1:30.45 | 184136 | 190930
11 | 42:25.56 | 4:56.70 | 190931 | 213200
12 | 47:22.51 | 5:09.36 | 213201 | 236411
13 | 52:32.12 | 4:19.69 | 236412 | 255905
14 | 56:52.06 | 4:50.37 | 255906 | 277692
15 | 61:42.43 | 3:31.13 | 277693 | 293530
16 | 65:13.56 | 4:09.20 | 293531 | 312225
17 | 69:23.01 | 4:09.46 | 312226 | 330946

Track 1

Filename F:\incoming\EAC\Various - 100 Greatest Film Themes (Disc 6)\01 - City Of Prague Philharmonic - Eyes Wide Shut (Waltz No. 2 From Jazz Suite No. 2).wav

Pre-gap length 0:00:02.00

Peak level 97.4 %
Track quality 100.0 %
Test CRC F3D54086
Copy CRC F3D54086
Accurately ripped (confidence 2) [C3AFEA43]
Copy OK

Track 2

Filename F:\incoming\EAC\Various - 100 Greatest Film Themes (Disc 6)\02 - Rick Clark - American Beauty (Any Other Name).wav

Peak level 89.1 %
Track quality 100.0 %
Test CRC 8FEDFBCE
Copy CRC 8FEDFBCE
Accurately ripped (confidence 2) [C736681E]
Copy OK

Track 3

Filename F:\incoming\EAC\Various - 100 Greatest Film Themes (Disc 6)\03 - City Of Prague Philharmonic - Star Wars- The Phantom Menace (Duel Of The Fates).wav

Peak level 87.9 %
Track quality 100.0 %
Test CRC A808B10C
Copy CRC A808B10C
Accurately ripped (confidence 2) [0F2A6A98]
Copy OK

Track 4

Filename F:\incoming\EAC\Various - 100 Greatest Film Themes (Disc 6)\04 - City Of Prague Philharmonic - Gladiator (Now We Are Free).wav

Peak level 96.6 %
Track quality 100.0 %
Test CRC 271A2D25
Copy CRC 271A2D25
Accurately ripped (confidence 2) [6882C028]
Copy OK

Track 5

Filename F:\incoming\EAC\Various - 100 Greatest Film Themes (Disc 6)\05 - City Of Prague Philharmonic - The Lord Of The Rings- The Fellowship Of The Ring (The Fellowship).wav

Peak level 93.4 %
Track quality 100.0 %
Test CRC 054CB93A
Copy CRC 054CB93A
Accurately ripped (confidence 2) [70D2900C]
Copy OK

Track 6

Filename F:\incoming\EAC\Various - 100 Greatest Film Themes (Disc 6)\06 - City Of Prague Philharmonic - Harry Pooter And The Philosopher's Stone (Hedwig's Theme).wav

Peak level 93.4 %
Track quality 100.0 %
Test CRC C34BA377
Copy CRC C34BA377
Accurately ripped (confidence 2) [51DAC9F7]
Copy OK

Track 7

Filename F:\incoming\EAC\Various - 100 Greatest Film Themes (Disc 6)\07 - City Of Prague Philharmonic - Spiderman (Main Theme).wav

Peak level 97.9 %
Track quality 100.0 %
Test CRC 7B6B696C
Copy CRC 7B6B696C
Accurately ripped (confidence 2) [C0D97A82]
Copy OK

Track 8

Filename F:\incoming\EAC\Various - 100 Greatest Film Themes (Disc 6)\08 - City Of Prague Philharmonic - Pirates Of The Caribbean- The Curse Of The Black Pearl (Suite).wav

Peak level 96.6 %
Track quality 100.0 %
Test CRC 39B513F9
Copy CRC 39B513F9
Accurately ripped (confidence 2) [52021758]
Copy OK

Track 9

Filename F:\incoming\EAC\Various - 100 Greatest Film Themes (Disc 6)\09 - City Of Prague Philharmonic - The Girl With The Pearl Earring (Griet's Theme).wav

Peak level 96.6 %
Track quality 100.0 %
Test CRC F6CC8A54
Copy CRC F6CC8A54
Accurately ripped (confidence 2) [5F149588]
Copy OK

Track 10

Filename F:\incoming\EAC\Various - 100 Greatest Film Themes (Disc 6)\10 - City Of Prague Philharmonic - Les Choristes (Les Choristes).wav

Peak level 93.1 %
Track quality 100.0 %
Test CRC 342D271E
Copy CRC 342D271E
Accurately ripped (confidence 2) [CF4E80DB]
Copy OK

Track 11

Filename F:\incoming\EAC\Various - 100 Greatest Film Themes (Disc 6)\11 - City Of Prague Philharmonic - Passion Of The Christ (Resurrection).wav

Peak level 96.0 %
Track quality 100.0 %
Test CRC C7CB9AB3
Copy CRC C7CB9AB3
Accurately ripped (confidence 2) [A99E8978]
Copy OK

Track 12

Filename F:\incoming\EAC\Various - 100 Greatest Film Themes (Disc 6)\12 - City Of Prague Philharmonic - Memoirs Of A Geisha (Sayuri's Theme & End Credits).wav

Peak level 91.3 %
Track quality 99.9 %
Test CRC 5C0A8F63
Copy CRC 5C0A8F63
Accurately ripped (confidence 2) [D9678511]
Copy OK

Track 13

Filename F:\incoming\EAC\Various - 100 Greatest Film Themes (Disc 6)\13 - City Of Prague Philharmonic - Munich (Prayer For Peace).wav

Peak level 93.0 %
Track quality 100.0 %
Test CRC 2C108DC8
Copy CRC 2C108DC8
Accurately ripped (confidence 2) [12EECED8]
Copy OK

Track 14

Filename F:\incoming\EAC\Various - 100 Greatest Film Themes (Disc 6)\14 - City Of Prague Philharmonic - The Chronicles Of Narnia- The Lion, The Witch And The Wardrobe (Suite).wav

Peak level 96.0 %
Track quality 100.0 %
Test CRC BB898BD8
Copy CRC BB898BD8
Accurately ripped (confidence 2) [C5A214D3]
Copy OK

Track 15

Filename F:\incoming\EAC\Various - 100 Greatest Film Themes (Disc 6)\15 - City Of Prague Philharmonic - Wallace And Gromit- Curse Of The Were-Rabbit (Theme And Chase).wav

Peak level 92.8 %
Track quality 99.9 %
Test CRC 3BE5B4CD
Copy CRC 3BE5B4CD
Accurately ripped (confidence 2) [558DE78C]
Copy OK

Track 16

Filename F:\incoming\EAC\Various - 100 Greatest Film Themes (Disc 6)\16 - City Of Prague Philharmonic - Brokeback Mountain (Suite).wav

Peak level 99.5 %
Track quality 100.0 %
Test CRC 44DE75FF
Copy CRC 44DE75FF
Accurately ripped (confidence 2) [208D7523]
Copy OK

Track 17

Filename F:\incoming\EAC\Various - 100 Greatest Film Themes (Disc 6)\17 - City Of Prague Philharmonic - The Da Vinci Code (Chevaliers De Sangreal).wav

Peak level 89.1 %
Track quality 100.0 %
Test CRC BE58D2E4
Copy CRC BE58D2E4
Accurately ripped (confidence 2) [6A41B33B]
Copy OK

All tracks accurately ripped

No errors occurred

End of status report
Дополнительно
Вашему вниманю представлена подборка сочных качественных саундтреков и "мэйн тем" из не безизвестных и знакомых многим фильмов, музыка во истину сильная, а саундтреки разнообразнейшие... перечислять не стоит ибо не счесть их... все они по своему велики...
Качаем, медленно но уверенно, источник "ВАТА" за раннее спасибо тем кто будет качать..


Трекер:  [ 27-Янв-2011 16:12 ]

  

Скачать .torrent

Размер .torrent файла 31 KB


Размер: 1.97 GB
Хэш (hash) релиза: 56fa3e9e81ff72aa616a07c90bc3339b5da14ed6

Еще никто не оставлял запись к записи скачать торрент City Of Prague Philharmonic - 100 Greatest Film Themes - 2007, FLAC . Будь первым!

!Обратная связь