Скачать через торрент Чемпион! Campione! бесплатно Аниме Все серии на русском torrent

Если у вас наблюдаются проблемы со скриншотами, переходом по ссылками, скачиванием торрентов - проблемы в блокировщике рекламы AdBlock. #хорошегоДня!


Статистика раздачи
Размер:  10.78 GB   |    Зарегистрирован:  3 года 11 месяцев   |    .torrent скачан:  76 раз   |   
Раздают:  1  
   
Загрузка...
 
Автор Сообщение

Galfimbul

avatar Galfimbul



Год выпуска: 2012
Страна: Япония
Жанр: мистика, романтика
Продолжительность: 13 эп. по 24 мин.
Выпуск: c 06.07.2012 по 28.09.2012
Перевод:

русские субтитры от antibillotic & kuro & ximik (полные/вспомогательные)
Режиссер: Кусакава Кэйдзё
Студия: Studio Barcelona
Описание:
Самое страшное существо во Вселенной – японский школьник, вступивший в пору весны юности! Потому 16-летний Годо Кусанаги ничуть не удивился, когда чудаковатый дедушка послал его, не знающего ни дороги, ни языка, в Италию - вернуть старой знакомой некую каменную табличку. Бравый парень тем более не потерялся, когда узнал, что кругом бродят маги, чудища и древние боги – ведь в аниме, манге и ранобэ все рецепты давно расписаны! Потому, победив с помощью чудесной таблички и резковатой красотки Эрики Бланделли персидского бога Веретрагну, Кусанаги спокойно принял божественные способности, став одним из семи «кампионе» - супервоинов, способных поражать даже небожителей. После этого, как и положено, герой вернулся домой и поступил в старшую школу.

Разумеется, Эрика, оказавшаяся рыцарем-магом из тайной организации «Черный крест», последовала за «любимым» в Японию, ибо не хотела терять из виду перспективного парня. Только в стране Ямато тоже не дураки живут, и к Кусанаги соответствующие структуры мастерски «подвели» Юри - застенчивую, но одаренную храмовую жрицу. Итальянцы еще раз усилили гарем героя - ответ хозяев поля был симметричным. Теперь вокруг новоиспеченного «кампионе» собралась такая бригада прекрасных дам, что и судьбы мира спокойно решать можно. Вот только собственная судьба, похоже, бедняге Годо давно не принадлежит!
© Hollow, World Art
Информационные ссылки: AniDB || World Art || MAL
Качество: BDRip
Энкод: Winter - RG Pantheon
Тип видео: без хардсаба, без линковки
Формат: mkv
Видео: x264 (Hi10p), 1280x720, ~4000 Kbps, 23.976 fps
Аудио JAP: Vorbis, 48000Hz, ~256 Kbps, 2ch
Аудио RUS 1-2: AC3, 48000Hz, ~192 Kbps, 2ch (внешними файлами)
Аудио RUS 3: AC3, 48000Hz, ~192 Kbps, 2ch (внешними файлами)
Аудио RUS 4: AC3, 48000Hz, ~192 Kbps, 2ch (внешними файлами)
одноголосая (муж.) от Negaushi (Animespace)
одноголосая (муж.) от Jerwis (ARRU)

двухголосая (муж./жен.) от Inspector_Gadjet & Nika Lenina (AniDub)
двухголосая (муж./жен.) от Neotopia & Enilou (Anilibria)

В озвучках на 4 серию присутствует фрагмент без перевода. Перевод на неё в субтитрах.
01. Tale of the Beginning
02. The Scenery Surrounding the King
03. From Afar, An Enemy Comes
04. Rogue Athena
05. Unpleasant Days
06. The Kings Converse
07. Wind, Rain, Wolf
08. A Hero Arrives
09. The Missing King
10. The Turbulent Demon King, the Sun Hero
11. Princess Shrine Maiden of the Long Sword
12. The Sword of Ama no Murakumo
13. Tale of the God-Slayer
Общее
Уникальный идентификатор : 220109687372296156703053001157254872036 (0xA5979573A79F5AF998EA2018EBF87BE4)
Полное имя : Z:\Anime\720p\Campione! [BD] [720p]\[Winter] Campione! 01 [BDrip 1280x720 x264 Vorbis].mkv
Формат : Matroska
Версия формата : Version 2
Размер файла : 1,05 Гбайт
Продолжительность : 25 м.
Режим общего битрейта : Переменный
Общий поток : 5945 Кбит/сек
Дата кодирования : UTC 2012-10-19 04:06:53
Программа кодирования : mkvmerge v2.9.7 (''Tenderness'') built on Jul 1 2009 18:43:35
Библиотека кодирования : libebml v0.7.7 + libmatroska v0.8.1

Видео
Идентификатор : 1
Формат : AVC
Формат/Информация : Advanced Video Codec
Профиль формата : High 10@L4.1
Параметр CABAC формата : Да
Параметр ReFrames формата : 9 кадров
Идентификатор кодека : V_MPEG4/ISO/AVC
Продолжительность : 25 м.
Битрейт : 5571 Кбит/сек
Ширина : 1280 пикселей
Высота : 720 пикселей
Соотношение сторон : 16:9
Режим частоты кадров : Постоянный
Частота кадров : 23,976 кадра/сек
Цветовое пространство : YUV
Субдискретизация насыщенности : 4:2:0
Битовая глубина : 10 бит
Тип развёртки : Прогрессивная
Бит/(Пиксели*Кадры) : 0.252
Размер потока : 1005 Мбайт (94%)
Библиотека кодирования : x264 core 125 r2200 999b753
Настройки программы : cabac=1 / ref=9 / deblock=1:-2:-2 / analyse=0x3:0x133 / me=umh / subme=9 / psy=1 / psy_rd=0.90:0.00 / mixed_ref=1 / me_range=24 / chroma_me=1 / trellis=2 / 8x8dct=1 / cqm=0 / deadzone=21,11 / fast_pskip=1 / chroma_qp_offset=-2 / threads=6 / lookahead_threads=1 / sliced_threads=0 / nr=0 / decimate=0 / interlaced=0 / bluray_compat=0 / constrained_intra=0 / bframes=8 / b_pyramid=2 / b_adapt=2 / b_bias=0 / direct=1 / weightb=1 / open_gop=0 / weightp=2 / keyint=250 / keyint_min=23 / scenecut=40 / intra_refresh=0 / rc=crf / mbtree=0 / crf=16.0 / qcomp=0.70 / qpmin=9 / qpmax=42 / qpstep=4 / ip_ratio=1.40 / pb_ratio=1.30 / aq=1:0.90
Default : Да
Forced : Нет

Аудио
Идентификатор : 2
Формат : Vorbis
Параметр Floor формата : 1
Идентификатор кодека : A_VORBIS
Продолжительность : 25 м.
Вид битрейта : Переменный
Битрейт : 256 Кбит/сек
Каналы : 2 канала
Частота : 48,0 КГц
Метод сжатия : С потерями
Размер потока : 46,2 Мбайт (4%)
Библиотека кодирования : libVorbis (Schaufenugget) (20101101 (Schaufenugget))
Язык : Japanese
Default : Да
Forced : Нет
Общее
Уникальный идентификатор : 176278078397507061654575044575582669349 (0x849DEC47ECA886BF93998D677A36CA25)
Полное имя : W:\ANIMATION\720p\Campione! [BD] [720p]\[WinterTEMP] Campione! 10 [BDrip 1280x720 x264 Vorbis].mkv
Формат : Matroska
Версия формата : Version 2
Размер файла : 699 Мбайт
Продолжительность : 23 м.
Общий поток : 4126 Кбит/сек
Дата кодирования : UTC 2013-06-28 18:55:31
Программа кодирования : mkvmerge v2.9.8 (''C''est le bon'') built on Aug 13 2009 12:49:06
Библиотека кодирования : libebml v0.7.7 + libmatroska v0.8.1

Видео
Идентификатор : 1
Формат : AVC
Формат/Информация : Advanced Video Codec
Профиль формата : High 10@L4.1
Параметр CABAC формата : Да
Параметр ReFrames формата : 9 кадров
Идентификатор кодека : V_MPEG4/ISO/AVC
Продолжительность : 23 м.
Ширина : 1280 пикселей
Высота : 720 пикселей
Соотношение сторон : 16:9
Режим частоты кадров : Постоянный
Частота кадров : 23,976 кадра/сек
Цветовое пространство : YUV
Субдискретизация насыщенности : 4:2:0
Битовая глубина : 10 бит
Тип развёртки : Прогрессивная
Библиотека кодирования : x264 core 125 r2200 999b753
Настройки программы : cabac=1 / ref=9 / deblock=1:-2:-2 / analyse=0x3:0x133 / me=umh / subme=9 / psy=1 / psy_rd=0.90:0.00 / mixed_ref=1 / me_range=24 / chroma_me=1 / trellis=2 / 8x8dct=1 / cqm=0 / deadzone=21,11 / fast_pskip=1 / chroma_qp_offset=-2 / threads=6 / lookahead_threads=1 / sliced_threads=0 / nr=0 / decimate=0 / interlaced=0 / bluray_compat=0 / constrained_intra=0 / bframes=8 / b_pyramid=2 / b_adapt=2 / b_bias=0 / direct=1 / weightb=1 / open_gop=0 / weightp=2 / keyint=250 / keyint_min=23 / scenecut=40 / intra_refresh=0 / rc=crf / mbtree=0 / crf=16.2 / qcomp=0.70 / qpmin=9 / qpmax=40 / qpstep=4 / ip_ratio=1.40 / pb_ratio=1.30 / aq=1:0.90
Default : Нет
Forced : Нет

Аудио
Идентификатор : 2
Формат : AAC
Формат/Информация : Advanced Audio Codec
Профиль формата : LC
Идентификатор кодека : A_AAC
Продолжительность : 23 м.
Каналы : 2 канала
Расположение каналов : Front: L R
Частота : 48,0 КГц
Метод сжатия : С потерями
Язык : Japanese
Default : Да
Forced : Нет



Трекер:  [ 04-Янв-2014 16:29 ]

  

Скачать .torrent

Размер .torrent файла 64 KB


Размер: 10.78 GB
Хэш (hash) релиза: 0514cafc90d6ba143313a5913ca9034626978104
Подписка на обновления:

Торренты, похожие на Чемпион! Campione! скачать торрент

Форум Название Автор Размер S L Добавлен
Манга ·· Jo Taketsuki / Джо Такэдзуки - Чемпион! / Campione! / Кампионе! [ranobe] [Том 1, 2 (пролог - глава 2)] [2008 г., фэнтези, приключения, романтика, комедия, гарем] [incomplete] Polarnik 6163806459 MB 0 0 1378305144

17:32

4-Сен-13

Аниме | HD Rips ·· Чемпион! / Campione! (Кусакава Кэйдзё) [TV] [13 из 13] [без хардсаба] [RUS(ext), JAP+SUB] [2012 г., приключения, мистика, романтика, BDRip] [720p] Polarnik 1127788100310.5 GB 0 0 1372494912

11:35

29-Июн-13

Аниме | HD Rips ·· Чемпион! / Campione! (Кусакава Кэйдзё) [TV] [без хардсаба] [13 из 13] [RUS(ext),JAP+SUB] [2012 г., приключения, мистика, романтика, HDTVRip] [720p] L 60336118945.62 GB 0 0 1364714180

10:16

31-Мар-13

Аниме | HD Rips ·· Чемпион! / Campione! [TV] [01-13 из 13] [Без хардсаба] [RUS(int), JAP+SUB] [2012 г., приключения, HDTVRip] [720p] L 55341105925.15 GB 0 0 1364714169

10:16

31-Мар-13

Аниме | Rips ·· Чемпион! / Campione! (Кусакава Кэйдзё) [TV] [13 из 13] [Без хардсаба] [JAP+SUB] [2012., приключения HDTVRip] [480p] L 35168621683.28 GB 0 0 1364714161

10:16

31-Мар-13

Еще никто не оставлял запись к записи скачать торрент Чемпион! Campione! . Будь первым!

!Обратная связь