Скачать через торрент музыку Sedat Anar - Belâgat бесплатно без регистрации torrent

Если у вас наблюдаются проблемы со скриншотами, переходом по ссылками, скачиванием торрентов - проблемы в блокировщике рекламы AdBlock. #хорошегоДня!


Статистика раздачи
Размер:  282 MB   |    Зарегистрирован:  3 года 11 месяцев   |    .torrent скачан:  201 раз   |   
Раздают:  1  
   
Загрузка...
 
Автор Сообщение

Galfimbul

avatar Galfimbul


Sedat Anar / Belâgat

Жанр: World, Persian Classical Music, Santoor
Год издания: 2013
Аудиокодек: FLAC (*.flac)
Тип рипа: tracks+.cue
Битрейт аудио: lossless
Продолжительность: 00:43:39

Треклист:
01. Zâr ü Efgân (6:51)
02. Butimar (4:10)
03. Zelal ve Aşk (3:13)
04. Aşk Şerbeti (3:12)
05. Bulutlar (4:10)
06. Baran Baran e (3:29)
07. Biçare (3:30)
08. Belâgat (4:59)
09. Şaşkın Peyrev (3:58)
10. Selen (6:07)
Exact Audio Copy V1.0 beta 3 from 29. August 2011

EAC extraction logfile from 4. January 2014, 11:25

Sedat Anar / Belâgat

Used drive : PIONEER DVD-RW DVRTD08A Adapter: 0 ID: 1

Read mode : SecureUtilize accurate stream : YesDefeat audio cache : YesMake use of C2 pointers : No

Read offset correction : 48Overread into Lead-In and Lead-Out : NoFill up missing offset samples with silence : YesDelete leading and trailing silent blocks : NoNull samples used in CRC calculations : YesUsed interface : Native Win32 interface for Win NT & 2000Gap handling : Appended to previous track

Used output format : User Defined EncoderSelected bitrate : 1024 kBit/sQuality : HighAdd ID3 tag : NoCommand line compressor : C:\Program Files (x86)\Exact Audio Copy\Flac\flac.exeAdditional command line options : -8 -V -T "ARTIST=%artist%" -T "TITLE=%title%" -T "ALBUM=%albumtitle%" -T "DATE=%year%" -T "TRACKNUMBER=%tracknr%" -T "GENRE=%genre%" -T "PERFORMER=%albuminterpret%" -T "COMPOSER=%composer%" %haslyrics%--tag-from-file=LYRICS="%lyricsfile%"%haslyrics% -T "ALBUMARTIST=%albumartist%" -T "DISCNUMBER=%cdnumber%" -T "TOTALDISCS=%totalcds%" -T "TOTALTRACKS=%numtracks%" -T "COMMENT=%comment%" %source% -o %dest%

TOC of the extracted CD

Track | Start | Length | Start sector | End sector --------------------------------------------------------- 1 | 0:00.00 | 6:51.01 | 0 | 30825 2 | 6:51.01 | 4:09.40 | 30826 | 49540 3 | 11:00.41 | 3:12.65 | 49541 | 64005 4 | 14:13.31 | 3:12.09 | 64006 | 78414 5 | 17:25.40 | 4:10.05 | 78415 | 97169 6 | 21:35.45 | 3:29.04 | 97170 | 112848 7 | 25:04.49 | 3:30.30 | 112849 | 128628 8 | 28:35.04 | 4:59.08 | 128629 | 151061 9 | 33:34.12 | 3:58.06 | 151062 | 168917 10 | 37:32.18 | 6:06.50 | 168918 | 196417

Track 1

Filename C:\EAC Rips\01. Zâr ü Efgân.wav

Pre-gap length 0:00:02.00

Peak level 100.0 % Extraction speed 2.8 X Track quality 99.9 % Test CRC 653BCFC6 Copy CRC 653BCFC6 Track not present in AccurateRip database Copy OK

Track 2

Filename C:\EAC Rips\02. Butimar.wav

Pre-gap length 0:00:02.00

Peak level 100.0 % Extraction speed 3.3 X Track quality 100.0 % Test CRC 6E11A561 Copy CRC 6E11A561 Track not present in AccurateRip database Copy OK

Track 3

Filename C:\EAC Rips\03. Zelal ve Aşk.wav

Pre-gap length 0:00:02.00

Peak level 100.0 % Extraction speed 2.9 X Track quality 99.9 % Test CRC 5163D7BF Copy CRC 5163D7BF Track not present in AccurateRip database Copy OK

Track 4

Filename C:\EAC Rips\04. Aşk Şerbeti.wav

Pre-gap length 0:00:02.00

Peak level 100.0 % Extraction speed 3.6 X Track quality 100.0 % Test CRC E31528A5 Copy CRC E31528A5 Track not present in AccurateRip database Copy OK

Track 5

Filename C:\EAC Rips\05. Bulutlar.wav

Pre-gap length 0:00:02.00

Peak level 100.0 % Extraction speed 3.8 X Track quality 100.0 % Test CRC D980D362 Copy CRC D980D362 Track not present in AccurateRip database Copy OK

Track 6

Filename C:\EAC Rips\06. Baran Baran e.wav

Pre-gap length 0:00:02.00

Peak level 100.0 % Extraction speed 3.9 X Track quality 100.0 % Test CRC 4E25A6C9 Copy CRC 4E25A6C9 Track not present in AccurateRip database Copy OK

Track 7

Filename C:\EAC Rips\07. Biçare.wav

Pre-gap length 0:00:02.00

Peak level 100.0 % Extraction speed 4.1 X Track quality 100.0 % Test CRC 7D9445D7 Copy CRC 7D9445D7 Track not present in AccurateRip database Copy OK

Track 8

Filename C:\EAC Rips\08. Belâgat.wav

Pre-gap length 0:00:02.00

Peak level 100.0 % Extraction speed 4.1 X Track quality 99.9 % Test CRC A961FDBB Copy CRC A961FDBB Track not present in AccurateRip database Copy OK

Track 9

Filename C:\EAC Rips\09. Şaşkın Peyrev.wav

Pre-gap length 0:00:02.00

Peak level 100.0 % Extraction speed 4.5 X Track quality 100.0 % Test CRC DB9490B8 Copy CRC DB9490B8 Track not present in AccurateRip database Copy OK

Track 10

Filename C:\EAC Rips\10. Selen.wav

Pre-gap length 0:00:02.00

Peak level 100.0 % Extraction speed 4.9 X Track quality 100.0 % Test CRC 7DE4E5E9 Copy CRC 7DE4E5E9 Track not present in AccurateRip database Copy OK

None of the tracks are present in the AccurateRip database

No errors occurred

End of status report


Трекер:  [ 04-Янв-2014 16:31 ]

  

Скачать .torrent

Размер .torrent файла 12 KB


Размер: 282 MB
Хэш (hash) релиза: 90a5c40be87007b94484d8d9f5ab435a5dc40d50

Еще никто не оставлял запись к записи скачать торрент Sedat Anar - Belâgat . Будь первым!

!Обратная связь