Скачать через торрент Вальврэйв Освободитель Kakumeiki Valvrave 2 бесплатно Аниме Все серии на русском torrent

Если у вас наблюдаются проблемы со скриншотами, переходом по ссылками, скачиванием торрентов - проблемы в блокировщике рекламы AdBlock. #хорошегоДня!


Статистика раздачи
Размер:  5.42 GB   |    Зарегистрирован:  3 года 11 месяцев   |    .torrent скачан:  50 раз   |   
Раздают:  1  
   
Загрузка...
 
Автор Сообщение

Galfimbul

avatar Galfimbul


Kakumeiki Valvrave 2 / Вальврэйв Освободитель
Страна: Япония
Год выпуска: 2013 г.
Жанр: Приключения, фантастика, меха
Продолжительность: 25 мин
русские субтитры: внешним файлом
Переводчик: Timecraft
Редактор/Оформление: AleX_MytH
Переводчик: reijiimeganeko

Режиссер: Мацуо Ко

Студия:

Описание: В далеком будущем люди живут в околоземном пространстве, вокруг Солнца раскинулась огромная сфера Дайсона, а человечество все так же рвут на части междоусобицы. Главными силами конфликта являются германская империя Доруссия, Атлантическая Федерация Арус и экономически успешный, но не богатый военными ресурсами Джиор, наследник маленькой, но гордой островной нации. Доруссия вторгается во владения Джиора в Сфере, торгаши из Аруса бросают бывших союзников, атакованные модули падают в руки врага, как спелые яблоки… кроме одного. А там в чем дело?
Дело в том, что в модуле-77 расположена старшая школа Сакимори, а с японскими… то есть, джиорскими школьниками шутки плохи! Это в мирное время старшеклассник Харуто Токисима – мягкотелый пацифист, мечтающий со всеми жить в дружбе и согласии. Стоит же тронуть пальцем его страну, друзей и близких – и Харуто превращается в смесь берсерка и хитроумного Одиссея, который может одинаково использовать и невесть откуда взявшегося боевого робота, и собственные мозги. Если же к повстанцам по всем законам жанра присоединить перековавшегося шпиона, местного хулигана и школьного идола, то «новые нибелунги» еще сто раз пожалеют, что затеяли свой «дранг нах сферен»!

Равка: Zero-Raws
Хардсаб: Отсутствует
Качество: HDTVRip
Формат видео: mp4
Видео: AVC, 8 bits, 1280x720; 23.976 fps; 2580 Kbps, (16:9)
Аудио:
1. JP - AAC, 48.0 KHz, 192 kbps, 2 ch
01.
General
Complete name : Q:\[Zero-Raws] Kakumeiki Valvrave 2\[Zero-Raws] Kakumeiki Valvrave - 01 (TBS 1280x720 x264 AAC).mp4
Format : MPEG-4
Format profile : Base Media
Codec ID : isom
File size : 485 MiB
Duration : 24mn 26s
Overall bit rate mode : Variable
Overall bit rate : 2 773 Kbps
Encoded date : UTC 2013-10-11 21:59:54
Tagged date : UTC 2013-10-11 21:59:54

Video
ID : 1
Format : AVC
Format/Info : Advanced Video Codec
Format profile : High@L3.1
Format settings, CABAC : Yes
Format settings, ReFrames : 4 frames
Codec ID : avc1
Codec ID/Info : Advanced Video Coding
Duration : 24mn 26s
Bit rate : 2 580 Kbps
Maximum bit rate : 21.7 Mbps
Width : 1 280 pixels
Height : 720 pixels
Display aspect ratio : 16:9
Frame rate mode : Constant
Frame rate : 23.976 fps
Color space : YUV
Chroma subsampling : 4:2:0
Bit depth : 8 bits
Scan type : Progressive
Bits/(Pixel*Frame) : 0.117
Stream size : 451 MiB (93%)
Writing library : x264 core 133 r2334 a3ac64b
Encoding settings : cabac=1 / ref=3 / deblock=1:0:0 / analyse=0x3:0x113 / me=hex / subme=7 / psy=1 / psy_rd=1.00:0.00 / mixed_ref=1 / me_range=16 / chroma_me=1 / trellis=1 / 8x8dct=1 / cqm=0 / deadzone=21,11 / fast_pskip=1 / chroma_qp_offset=-2 / threads=12 / lookahead_threads=2 / sliced_threads=0 / nr=0 / decimate=1 / interlaced=0 / bluray_compat=0 / constrained_intra=0 / bframes=3 / b_pyramid=2 / b_adapt=1 / b_bias=0 / direct=1 / weightb=1 / open_gop=0 / weightp=2 / keyint=250 / keyint_min=23 / scenecut=40 / intra_refresh=0 / rc_lookahead=40 / rc=crf / mbtree=1 / crf=19.5 / qcomp=0.60 / qpmin=0 / qpmax=69 / qpstep=4 / ip_ratio=1.40 / aq=1:1.00
Encoded date : UTC 2013-10-11 21:35:43
Tagged date : UTC 2013-10-11 21:59:55

Audio
ID : 2
Format : AAC
Format/Info : Advanced Audio Codec
Format profile : LC
Codec ID : 40
Duration : 24mn 26s
Bit rate mode : Variable
Bit rate : 192 Kbps
Maximum bit rate : 197 Kbps
Channel(s) : 2 channels
Channel positions : Front: L R
Sampling rate : 48.0 KHz
Compression mode : Lossy
Delay relative to video : 83ms
Stream size : 33.0 MiB (7%)
Title : aac#trackID=1:lang=Japanese@GPAC0.5.1-DEV-rev4283
Language : Japanese
Encoded date : UTC 2013-10-11 21:59:54
Tagged date : UTC 2013-10-11 21:59:55


Трекер:  [ 06-Янв-2014 13:59 ]

  

Скачать .torrent

Размер .torrent файла 16 KB


Размер: 5.42 GB
Хэш (hash) релиза: 441f36fea074da841ff0c07063a348b276ff7e13
Подписка на обновления:

Торренты, похожие на Вальврэйв Освободитель Kakumeiki Valvrave 2 скачать торрент

Форум Название Автор Размер S L Добавлен
Аниме | Blu-Ray и BDRemux ·· Вальврэйв Освободитель / Kakumeiki Valvrave / Valvrave the Liberator (Мацуо Ко) [TV] [2 из 12] [без хардсаба] [RUS(ext), JAP+SUB] [2013 г., приключения, фантастика, меха, BDRemux] [1080p] Polarnik 1458289928113.58 GB 0 0 1380661014

23:56

1-Окт-13

Аниме | HD Rips ·· Вальврэйв Освободитель / Kakumeiki Valvrave / Valvrave the Liberator (Мацуо Ко) [TV] [2 из 12] [без хардсаба] [RUS(ext), JAP+SUB] [2013 г., приключения, фантастика, меха, BDRip] [720p] Galfimbul 23821573882.22 GB 0 0 1375822448

23:54

6-Авг-13

Аниме | HD Rips ·· Вальврэйв Освободитель / Kakumeiki Valvrave [TV] [1-2 из >12] [без хардсаба] [RUS(int), JAP+SUB] [2013 г., приключения, мистика, HDTVRip] [720p] Galfimbul 12242577381.14 GB 0 0 1365952406

18:13

14-Апр-13

Аниме | HD Rips ·· Вальврэйв Освободитель (ТВ-2) / Valvrave the Liberator / Kakumeiki Valvrave (Мацуо Ко) [TV] [12 из 12] [без хардсаба] [RUS(ext),JAP+SUB] [2013 г., приключения, фантастика, меха, BDRip] [1080p] Galfimbul 1323632864112.33 GB 0 0 1465202204

11:36

6-Июн-16

Еще никто не оставлял запись к записи скачать торрент Вальврэйв Освободитель Kakumeiki Valvrave 2 . Будь первым!

!Обратная связь