Скачать через торрент музыку Полиция Майами: Отдел нравов Miami Vice - The Ultimate Collection бесплатно без регистрации torrent

Если у вас наблюдаются проблемы со скриншотами, переходом по ссылками, скачиванием торрентов - проблемы в блокировщике рекламы AdBlock. #хорошегоДня!


Статистика раздачи
Размер:  768 MB   |    Зарегистрирован:  3 года 10 месяцев   |    .torrent скачан:  178 раз   |   
Раздают:  1  
   
Загрузка...
 
Автор Сообщение

Galfimbul

avatar Galfimbul


Полиция Майами: Отдел нравов / Miami Vice - The Ultimate Collection
Жанр: Soundtrack / Score
Композиторы: Jan Hammer
Производитель: USA
Год выпуска: 2004
Битрейт аудио: lossless
Тип рипа: tracks+.cue
Аудио кодек: FLAC (*.flac)
Продолжительность: 00:02:05:05
Источник: what.cd [spasiba]
Disc 1:
01. Jan Hammer - The Original Miami Vice Theme (Instrumental) [1:03]
02. Glenn Frey - Smuggler''s Blues [3:51]
03. Chaka Khan - Own The Night [4:51]
04. Glenn Frey - You Belong To The City [5:52]
05. Phil Collins - In The Air Tonight [5:27]
06. Jan Hammer - Miami Vice Theme (Instrumental) [2:28]
07. Grandmaster Melle Mel - Vice [5:02]
08. Tina Turner - Better Be Good To Me [5:11]
09. Jan Hammer - Flashback (Instrumental) [3:22]
10. Jan Hammer - Chase (Instrumental) [2:41]
11. Jan Hammer - Evan (Instrumental) [3:07]
Exact Audio Copy V0.99 prebeta 5 from 4. May 2009

EAC extraction logfile from 10. February 2010, 19:56

Various / Miami Vice - The Ultimate Collection (CD1)

Used drive : _NEC DVD_RW ND-1300A Adapter: 3 ID: 0

Read mode : SecureUtilize accurate stream : YesDefeat audio cache : YesMake use of C2 pointers : No

Read offset correction : 48Overread into Lead-In and Lead-Out : NoFill up missing offset samples with silence : YesDelete leading and trailing silent blocks : NoNull samples used in CRC calculations : YesUsed interface : Native Win32 interface for Win NT & 2000Gap handling : Appended to previous track

Used output format : User Defined EncoderSelected bitrate : 320 kBit/sQuality : HighAdd ID3 tag : NoCommand line compressor : D:\EAC flac\FLAC\flac.exeAdditional command line options : -V -8 -T "artist=%a" -T "title=%t" -T "album=%g" -T "date=%y" -T "tracknumber=%n" -T "genre=%m" %s

TOC of the extracted CD

Track | Start | Length | Start sector | End sector --------------------------------------------------------- 1 | 0:00.37 | 1:03.10 | 37 | 4771 2 | 1:03.47 | 3:50.45 | 4772 | 22066 3 | 4:54.17 | 4:51.30 | 22067 | 43921 4 | 9:45.47 | 5:51.40 | 43922 | 70286 5 | 15:37.12 | 5:26.60 | 70287 | 94796 6 | 21:03.72 | 2:28.25 | 94797 | 105921 7 | 23:32.22 | 5:01.73 | 105922 | 128569 8 | 28:34.20 | 5:10.42 | 128570 | 151861 9 | 33:44.62 | 3:21.40 | 151862 | 166976 10 | 37:06.27 | 2:40.73 | 166977 | 179049 11 | 39:47.25 | 3:07.25 | 179050 | 193099

Track 1

Filename D:\EACrips\Various - 2004 - Miami Vice - The Ultimate Collection (CD1) [FLAC]\01 - Jan Hammer - The Original Miami Vice Theme (Instrumental) .wav

Pre-gap length 0:00:02.49

Peak level 95.5 % Track quality 100.0 % Test CRC 007221DF Copy CRC 007221DF Accurately ripped (confidence 10) [84EFE90A] Copy OK

Track 2

Filename D:\EACrips\Various - 2004 - Miami Vice - The Ultimate Collection (CD1) [FLAC]\02 - Glenn Frey - Smuggler''s Blues .wav

Pre-gap length 0:00:01.22

Peak level 95.5 % Track quality 100.0 % Test CRC ABC26FEF Copy CRC ABC26FEF Accurately ripped (confidence 9) [DAE094D0] Copy OK

Track 3

Filename D:\EACrips\Various - 2004 - Miami Vice - The Ultimate Collection (CD1) [FLAC]\03 - Chaka Khan - Own The Night .wav

Pre-gap length 0:00:01.60

Peak level 89.7 % Track quality 100.0 % Test CRC FB9BAF93 Copy CRC FB9BAF93 Accurately ripped (confidence 9) [8968E65E] Copy OK

Track 4

Filename D:\EACrips\Various - 2004 - Miami Vice - The Ultimate Collection (CD1) [FLAC]\04 - Glenn Frey - You Belong To The City .wav

Pre-gap length 0:00:01.26

Peak level 100.0 % Track quality 100.0 % Test CRC F09A81D7 Copy CRC F09A81D7 Accurately ripped (confidence 9) [13856FA7] Copy OK

Track 5

Filename D:\EACrips\Various - 2004 - Miami Vice - The Ultimate Collection (CD1) [FLAC]\05 - Phil Collins - In The Air Tonight .wav

Pre-gap length 0:00:02.66

Peak level 97.7 % Track quality 100.0 % Test CRC 6626030D Copy CRC 6626030D Accurately ripped (confidence 9) [D9E132EC] Copy OK

Track 6

Filename D:\EACrips\Various - 2004 - Miami Vice - The Ultimate Collection (CD1) [FLAC]\06 - Jan Hammer - Miami Vice Theme (Instrumental) .wav

Pre-gap length 0:00:01.89

Peak level 100.0 % Track quality 100.0 % Test CRC 978A7707 Copy CRC 978A7707 Accurately ripped (confidence 9) [93D4BD6E] Copy OK

Track 7

Filename D:\EACrips\Various - 2004 - Miami Vice - The Ultimate Collection (CD1) [FLAC]\07 - Grandmaster Melle Mel - Vice .wav

Pre-gap length 0:00:01.33

Peak level 93.3 % Track quality 100.0 % Test CRC 5DADA1A6 Copy CRC 5DADA1A6 Accurately ripped (confidence 9) [3A59C48A] Copy OK

Track 8

Filename D:\EACrips\Various - 2004 - Miami Vice - The Ultimate Collection (CD1) [FLAC]\08 - Tina Turner - Better Be Good To Me .wav

Pre-gap length 0:00:01.30

Peak level 85.9 % Track quality 100.0 % Test CRC 8223B13B Copy CRC 8223B13B Accurately ripped (confidence 9) [93258369] Copy OK

Track 9

Filename D:\EACrips\Various - 2004 - Miami Vice - The Ultimate Collection (CD1) [FLAC]\09 - Jan Hammer - Flashback (Instrumental) .wav

Pre-gap length 0:00:01.76

Peak level 77.4 % Track quality 100.0 % Test CRC C07DC931 Copy CRC C07DC931 Accurately ripped (confidence 10) [69FF33B7] Copy OK

Track 10

Filename D:\EACrips\Various - 2004 - Miami Vice - The Ultimate Collection (CD1) [FLAC]\10 - Jan Hammer - Chase (Instrumental) .wav

Pre-gap length 0:00:01.86

Peak level 97.7 % Track quality 100.0 % Test CRC 0189F52B Copy CRC 0189F52B Accurately ripped (confidence 10) [8DF84587] Copy OK

Track 11

Filename D:\EACrips\Various - 2004 - Miami Vice - The Ultimate Collection (CD1) [FLAC]\11 - Jan Hammer - Evan (Instrumental) .wav

Pre-gap length 0:00:01.20

Peak level 93.8 % Track quality 100.0 % Test CRC 67B8EA8F Copy CRC 67B8EA8F Accurately ripped (confidence 9) [180FD152] Copy OK

All tracks accurately ripped

No errors occurred

End of status report
REM GENRE SoundtrackREM DATE 2004REM DISCID 9C0A0E0BREM COMMENT "ExactAudioCopy v0.99pb5"FILE "01. Jan Hammer - The Original Miami Vice Theme (Instrumental).wav" WAVE TRACK 01 AUDIO PREGAP 00:00:37 TITLE "The Original Miami Vice Theme (Instrumental)" PERFORMER "Jan Hammer" INDEX 01 00:00:00 TRACK 02 AUDIO TITLE "Smuggler''s Blues" PERFORMER "Glenn Frey" INDEX 00 01:01:68FILE "02. Glenn Frey - Smuggler''s Blues.wav" WAVE INDEX 01 00:00:00 TRACK 03 AUDIO TITLE "Own The Night" PERFORMER "Chaka Khan" INDEX 00 03:49:00FILE "03. Chaka Khan - Own The Night.wav" WAVE INDEX 01 00:00:00 TRACK 04 AUDIO TITLE "You Belong To The City" PERFORMER "Glenn Frey" INDEX 00 04:50:10FILE "04. Glenn Frey - You Belong To The City.wav" WAVE INDEX 01 00:00:00 TRACK 05 AUDIO TITLE "In The Air Tonight" PERFORMER "Phil Collins" INDEX 00 05:48:65FILE "05. Phil Collins - In The Air Tonight.wav" WAVE INDEX 01 00:00:00 TRACK 06 AUDIO TITLE "Miami Vice Theme (Instrumental)" PERFORMER "Jan Hammer" INDEX 00 05:24:68FILE "06. Jan Hammer - Miami Vice Theme (Instrumental).wav" WAVE INDEX 01 00:00:00 TRACK 07 AUDIO TITLE "Vice" PERFORMER "Grandmaster Melle Mel" INDEX 00 02:27:00FILE "07. Grandmaster Melle Mel - Vice.wav" WAVE INDEX 01 00:00:00 TRACK 08 AUDIO TITLE "Better Be Good To Me" PERFORMER "Tina Turner" INDEX 00 05:00:50FILE "08. Tina Turner - Better Be Good To Me.wav" WAVE INDEX 01 00:00:00 TRACK 09 AUDIO TITLE "Flashback (Instrumental)" PERFORMER "Jan Hammer" INDEX 00 05:08:60FILE "09. Jan Hammer - Flashback (Instrumental).wav" WAVE INDEX 01 00:00:00 TRACK 10 AUDIO TITLE "Chase (Instrumental)" PERFORMER "Jan Hammer" INDEX 00 03:19:50FILE "10. Jan Hammer - Chase (Instrumental).wav" WAVE INDEX 01 00:00:00 TRACK 11 AUDIO TITLE "Evan (Instrumental)" PERFORMER "Jan Hammer" INDEX 00 02:39:58FILE "11. Jan Hammer - Evan (Instrumental).wav" WAVE INDEX 01 00:00:00
-----------------------

DON''T MODIFY THIS FILE

-----------------------

PERFORMER: auCDtect Task Manager, ver. 1.6.0 RC1 build 1.6.0.1Copyright (c) 2008-2010 y-soft. All rights reservedhttp://y-soft.org

ANALYZER: auCDtect: CD records authenticity detector, version 0.8.2Copyright (c) 2004 Oleg Berngardt. All rights reserved.Copyright (c) 2004 Alexander Djourik. All rights reserved.

FILE: 01. Jan Hammer - The Original Miami Vice Theme (Instrumental).flac Size: 6800390 Hash: BC36E4CA849B7A865E7757654C34E473 Accuracy: -m0 Conclusion: CDDA 100% Signature: 1A47EC46E27CFFD0DA952537899927194D85468BFILE: 02. Glenn Frey - Smuggler''s Blues.flac Size: 26456555 Hash: EC7DA8DD36B17CBA9B0D75594A23B876 Accuracy: -m0 Conclusion: CDDA 99% Signature: A6857C285AAE08FC1E85B6930B226B853244C062FILE: 03. Chaka Khan - Own The Night.flac Size: 33333828 Hash: BB4A1A6DFB0020350550B50B096D57FD Accuracy: -m0 Conclusion: CDDA 99% Signature: 205E259BD683C08D19CA81860453B8E61F3F6882FILE: 04. Glenn Frey - You Belong To The City.flac Size: 37451296 Hash: CEFF5A6F461A1F399E20133C71F24F5C Accuracy: -m0 Conclusion: MPEG 95% Signature: E0FE9896172559F97BE153A380D5396CE6BCFDA4FILE: 05. Phil Collins - In The Air Tonight.flac Size: 27290385 Hash: 254B814D507D37D745980AC507223955 Accuracy: -m0 Conclusion: CDDA 100% Signature: D6425498F09D8A3FB4BCB12CD34CE3B3348CA485FILE: 06. Jan Hammer - Miami Vice Theme (Instrumental).flac Size: 16351690 Hash: 41CA89D8B53EADD7361949D7F449979E Accuracy: -m0 Conclusion: CDDA 99% Signature: FED1F3F24B64437F588092AC68AD6864E1F79C06FILE: 07. Grandmaster Melle Mel - Vice.flac Size: 31435257 Hash: 611564BD641C7D305CC3BE48F6095DF1 Accuracy: -m0 Conclusion: CDDA 100% Signature: 600571C16FCBA78DF51C0FD4126E79A5EDAC0696FILE: 08. Tina Turner - Better Be Good To Me.flac Size: 33506088 Hash: F37BF8B9FBB152353F04CBBB5BD9BA3F Accuracy: -m0 Conclusion: CDDA 99% Signature: 5BD7962D057F43D592372FBA2F5D3A7C32C30C1BFILE: 09. Jan Hammer - Flashback (Instrumental).flac Size: 17025387 Hash: 686A73F5045096CA5457269B214B0B49 Accuracy: -m0 Conclusion: CDDA 100% Signature: E79B6BC8B3F4C3221D8B8A63F3E811551CBEDD6AFILE: 10. Jan Hammer - Chase (Instrumental).flac Size: 16220139 Hash: 9D63D7A3B8F7805A2B861589FBE838D0 Accuracy: -m0 Conclusion: CDDA 100% Signature: 522C7D55C6DF1ECE58F5E0F960A0424C477ED7B4FILE: 11. Jan Hammer - Evan (Instrumental).flac Size: 19156830 Hash: 97CBC36A6F9210007FD216CE1DA0F3F3 Accuracy: -m0 Conclusion: CDDA 100% Signature: AD488235A9A1F0B60AB1F50CCFEAD11CE024B29C
[CUETools log; Date: 22.01.2014 16:41:39; Version: 2.1.4]Pregap length 00:00:37.[CTDB TOCID: DOCrSxg25KagIE0BB57n288EV64-] found.Track | CTDB Status 1 | (1/1) Accurately ripped 2 | (1/1) Accurately ripped 3 | (1/1) Accurately ripped 4 | (1/1) Accurately ripped 5 | (1/1) Accurately ripped 6 | (1/1) Accurately ripped 7 | (1/1) Accurately ripped 8 | (1/1) Accurately ripped 9 | (1/1) Accurately ripped 10 | (1/1) Accurately ripped 11 | (1/1) Accurately ripped[AccurateRip ID: 0011b893-009ca193-9c0a0e0b] found.Track [ CRC | V2 ] Status 01 [84efe90a|33aedb5f] (18+13/36) Accurately ripped 02 [dae094d0|254fd293] (17+13/36) Accurately ripped 03 [8968e65e|190b11a2] (17+13/36) Accurately ripped 04 [13856fa7|64cabc89] (17+13/36) Accurately ripped 05 [d9e132ec|6c4b221c] (17+13/36) Accurately ripped 06 [93d4bd6e|38475b62] (17+13/36) Accurately ripped 07 [3a59c48a|5ca8f0d9] (17+13/36) Accurately ripped 08 [93258369|e2395de8] (17+13/36) Accurately ripped 09 [69ff33b7|5b965539] (18+13/37) Accurately ripped 10 [8df84587|e3f11305] (18+13/37) Accurately ripped 11 [180fd152|ca422611] (17+13/36) Accurately rippedOffsetted by 664: 01 [d470d4fa] (02/36) Accurately ripped 02 [b3d9b068] (03/36) Accurately ripped 03 [faa16f0e] (03/36) Accurately ripped 04 [b8c27497] (03/36) Accurately ripped 05 [489bbe2c] (03/36) Accurately ripped 06 [7612ff16] (03/36) Accurately ripped 07 [ec995012] (03/36) Accurately ripped 08 [b1072cd9] (03/36) Accurately ripped 09 [74c621bf] (03/37) Accurately ripped 10 [273f201f] (03/37) Accurately ripped 11 [3d2792ca] (03/36) Accurately ripped

Track Peak [ CRC32 ] [W/O NULL] [ LOG ] -- 100,0 [CD3B4A72] [7B7E2562] 01 95,5 [007221DF] [638012E5] CRC32 02 95,5 [ABC26FEF] [D1038D2A] CRC32 03 89,7 [FB9BAF93] [A52DD323] CRC32 04 100,0 [F09A81D7] [68C9E2D3] CRC32 05 97,7 [6626030D] [6E096713] CRC32 06 100,0 [978A7707] [C235A5F2] CRC32 07 93,3 [5DADA1A6] [968DC657] CRC32 08 85,9 [8223B13B] [CD159218] CRC32 09 77,4 [C07DC931] [47D524DB] CRC32 10 97,7 [0189F52B] [9165AFE1] CRC32 11 93,8 [67B8EA8F] [8A7C0A88] CRC32

Disc 2:
01. Steve Jones - Mercy [4:32]
02. Gladys Knight And The Pips - Send It To Me [4:14]
03. Phil Collins - Take Me Home [5:52]
04. Bill Champlin & Patti LaBelle - The Last Unbroken Heart [3:56]
05. Jan Hammer - Crockett''s Theme (Instrumental) [3:27]
06. Andy Taylor - When The Rain Comes Down [3:53]
07. Roxy Music - Lover [3:55]
08. Jackson Browne - Lives In The Balance [4:15]
09. The Damned - In Dulce Decorum [4:49]
10. Jan Hammer - Miami Vice: New York Theme (Instrumental) [3:02]
11. Jan Hammer - The Original Miami Vice Theme (Instrumental) [1:01]
Exact Audio Copy V0.99 prebeta 5 from 4. May 2009

EAC extraction logfile from 10. February 2010, 20:32

Various / Miami Vice - The Ultimate Collection (CD2)

Used drive : _NEC DVD_RW ND-1300A Adapter: 3 ID: 0

Read mode : SecureUtilize accurate stream : YesDefeat audio cache : YesMake use of C2 pointers : No

Read offset correction : 48Overread into Lead-In and Lead-Out : NoFill up missing offset samples with silence : YesDelete leading and trailing silent blocks : NoNull samples used in CRC calculations : YesUsed interface : Native Win32 interface for Win NT & 2000Gap handling : Appended to previous track

Used output format : User Defined EncoderSelected bitrate : 320 kBit/sQuality : HighAdd ID3 tag : NoCommand line compressor : D:\EAC flac\FLAC\flac.exeAdditional command line options : -V -8 -T "artist=%a" -T "title=%t" -T "album=%g" -T "date=%y" -T "tracknumber=%n" -T "genre=%m" %s

TOC of the extracted CD

Track | Start | Length | Start sector | End sector --------------------------------------------------------- 1 | 0:00.32 | 4:31.58 | 32 | 20414 2 | 4:32.15 | 4:13.42 | 20415 | 39431 3 | 8:45.57 | 5:52.20 | 39432 | 65851 4 | 14:38.02 | 3:55.55 | 65852 | 83531 5 | 18:33.57 | 3:27.03 | 83532 | 99059 6 | 22:00.60 | 3:52.47 | 99060 | 116506 7 | 25:53.32 | 3:54.38 | 116507 | 134094 8 | 29:47.70 | 4:15.30 | 134095 | 153249 9 | 34:03.25 | 4:48.62 | 153250 | 174911 10 | 38:52.12 | 3:01.63 | 174912 | 188549 11 | 41:54.00 | 1:01.12 | 188550 | 193136

Track 1

Filename D:\EACrips\Various - 2004 - Miami Vice - The Ultimate Collection (CD2) [FLAC]\01 - Steve Jones - Mercy .wav

Pre-gap length 0:00:02.42

Peak level 84.3 % Track quality 100.0 % Test CRC 80AF8981 Copy CRC 80AF8981 Accurately ripped (confidence 4) [998BAB7B] Copy OK

Track 2

Filename D:\EACrips\Various - 2004 - Miami Vice - The Ultimate Collection (CD2) [FLAC]\02 - Gladys Knight And The Pips - Send It To Me .wav

Pre-gap length 0:00:01.77

Peak level 79.2 % Track quality 100.0 % Test CRC A0369AC9 Copy CRC A0369AC9 Accurately ripped (confidence 4) [4C7F6DF1] Copy OK

Track 3

Filename D:\EACrips\Various - 2004 - Miami Vice - The Ultimate Collection (CD2) [FLAC]\03 - Phil Collins - Take Me Home .wav

Pre-gap length 0:00:01.36

Peak level 86.7 % Track quality 100.0 % Test CRC 1A73A0BA Copy CRC 1A73A0BA Accurately ripped (confidence 4) [2DFA5959] Copy OK

Track 4

Filename D:\EACrips\Various - 2004 - Miami Vice - The Ultimate Collection (CD2) [FLAC]\04 - Bill Champlin & Patti LaBelle - The Last Unbroken Heart .wav

Pre-gap length 0:00:01.16

Peak level 70.3 % Track quality 100.0 % Test CRC F30F2EEE Copy CRC F30F2EEE Accurately ripped (confidence 4) [F0C50D68] Copy OK

Track 5

Filename D:\EACrips\Various - 2004 - Miami Vice - The Ultimate Collection (CD2) [FLAC]\05 - Jan Hammer - Crockett''s Theme (Instrumental) .wav

Pre-gap length 0:00:01.06

Peak level 46.8 % Track quality 100.0 % Test CRC 9D524237 Copy CRC 9D524237 Accurately ripped (confidence 4) [62028F68] Copy OK

Track 6

Filename D:\EACrips\Various - 2004 - Miami Vice - The Ultimate Collection (CD2) [FLAC]\06 - Andy Taylor - When The Rain Comes Down .wav

Pre-gap length 0:00:01.20

Peak level 69.2 % Track quality 100.0 % Test CRC E67F3FC3 Copy CRC E67F3FC3 Accurately ripped (confidence 4) [623B405C] Copy OK

Track 7

Filename D:\EACrips\Various - 2004 - Miami Vice - The Ultimate Collection (CD2) [FLAC]\07 - Roxy Music - Lover .wav

Pre-gap length 0:00:00.53

Peak level 81.3 % Track quality 100.0 % Test CRC 21609F6E Copy CRC 21609F6E Accurately ripped (confidence 4) [F8A8E95E] Copy OK

Track 8

Filename D:\EACrips\Various - 2004 - Miami Vice - The Ultimate Collection (CD2) [FLAC]\08 - Jackson Browne - Lives In The Balance .wav

Pre-gap length 0:00:01.80

Peak level 65.5 % Track quality 100.0 % Test CRC A5BF0604 Copy CRC A5BF0604 Accurately ripped (confidence 4) [CBB1A69E] Copy OK

Track 9

Filename D:\EACrips\Various - 2004 - Miami Vice - The Ultimate Collection (CD2) [FLAC]\09 - The Damned - In Dulce Decorum .wav

Pre-gap length 0:00:02.40

Peak level 81.6 % Track quality 100.0 % Test CRC A758736F Copy CRC A758736F Accurately ripped (confidence 4) [9344B1E7] Copy OK

Track 10

Filename D:\EACrips\Various - 2004 - Miami Vice - The Ultimate Collection (CD2) [FLAC]\10 - Jan Hammer - Miami Vice- New York Theme (Instrumental) .wav

Pre-gap length 0:00:02.06

Peak level 73.9 % Track quality 100.0 % Test CRC 8C9FA3FD Copy CRC 8C9FA3FD Accurately ripped (confidence 4) [D4499FB3] Copy OK

Track 11

Filename D:\EACrips\Various - 2004 - Miami Vice - The Ultimate Collection (CD2) [FLAC]\11 - Jan Hammer - The Original Miami Vice Theme (Instrumental) .wav

Pre-gap length 0:00:01.20

Peak level 66.8 % Track quality 100.0 % Test CRC 871901F5 Copy CRC 871901F5 Accurately ripped (confidence 4) [6232C03A] Copy OK

All tracks accurately ripped

No errors occurred

End of status report
REM GENRE SoundtrackREM DATE 2004REM DISCID 8B0A0F0BREM COMMENT "ExactAudioCopy v0.99pb5"FILE "01. Steve Jones - Mercy.wav" WAVE TRACK 01 AUDIO PREGAP 00:00:32 TITLE "Mercy" PERFORMER "Steve Jones" INDEX 01 00:00:00 TRACK 02 AUDIO TITLE "Send It To Me" PERFORMER "Gladys Knight And The Pips" INDEX 00 04:30:00FILE "02. Gladys Knight And The Pips - Send It To Me.wav" WAVE INDEX 01 00:00:00 TRACK 03 AUDIO TITLE "Take Me Home" PERFORMER "Phil Collins" INDEX 00 04:12:15FILE "03. Phil Collins - Take Me Home.wav" WAVE INDEX 01 00:00:00 TRACK 04 AUDIO TITLE "The Last Unbroken Heart" PERFORMER "Bill Champlin & Patti LaBelle" INDEX 00 05:51:08FILE "04. Bill Champlin & Patti LaBelle - The Last Unbroken Heart.wav" WAVE INDEX 01 00:00:00 TRACK 05 AUDIO TITLE "Crockett''s Theme (Instrumental)" PERFORMER "Jan Hammer" INDEX 00 03:54:50FILE "05. Jan Hammer - Crockett''s Theme (Instrumental).wav" WAVE INDEX 01 00:00:00 TRACK 06 AUDIO TITLE "When The Rain Comes Down" PERFORMER "Andy Taylor" INDEX 00 03:25:63FILE "06. Andy Taylor - When The Rain Comes Down.wav" WAVE INDEX 01 00:00:00 TRACK 07 AUDIO TITLE "Lover" PERFORMER "Roxy Music" INDEX 00 03:52:07FILE "07. Roxy Music - Lover.wav" WAVE INDEX 01 00:00:00 TRACK 08 AUDIO TITLE "Lives In The Balance" PERFORMER "Jackson Browne" INDEX 00 03:52:53FILE "08. Jackson Browne - Lives In The Balance.wav" WAVE INDEX 01 00:00:00 TRACK 09 AUDIO TITLE "In Dulce Decorum" PERFORMER "The Damned" INDEX 00 04:13:00FILE "09. The Damned - In Dulce Decorum.wav" WAVE INDEX 01 00:00:00 TRACK 10 AUDIO TITLE "Miami Vice: New York Theme (Instrumental)" PERFORMER "Jan Hammer" INDEX 00 04:46:57FILE "10. Jan Hammer - Miami Vice - New York Theme (Instrumental).wav" WAVE INDEX 01 00:00:00 TRACK 11 AUDIO TITLE "The Original Miami Vice Theme (Instrumental)" PERFORMER "Jan Hammer" INDEX 00 03:00:48FILE "11. Jan Hammer - The Original Miami Vice Theme (Instrumental).wav" WAVE INDEX 01 00:00:00
-----------------------

DON''T MODIFY THIS FILE

-----------------------

PERFORMER: auCDtect Task Manager, ver. 1.6.0 RC1 build 1.6.0.1Copyright (c) 2008-2010 y-soft. All rights reservedhttp://y-soft.org

ANALYZER: auCDtect: CD records authenticity detector, version 0.8.2Copyright (c) 2004 Oleg Berngardt. All rights reserved.Copyright (c) 2004 Alexander Djourik. All rights reserved.

FILE: 01. Steve Jones - Mercy.flac Size: 29733831 Hash: 9EE888C02478317104472AD893147694 Accuracy: -m0 Conclusion: CDDA 100% Signature: 0E20F7A67407C619C38A723810662535565BBD0DFILE: 02. Gladys Knight And The Pips - Send It To Me.flac Size: 28079828 Hash: 4E3DA744B7B22560041BBC34BEAE529C Accuracy: -m0 Conclusion: CDDA 100% Signature: 18163552908DEB059BFDF815C91C0460DF6CCA35FILE: 03. Phil Collins - Take Me Home.flac Size: 36573497 Hash: A5810383534FB0646B519D531BB4F05E Accuracy: -m0 Conclusion: CDDA 43% Signature: 0AFC088910555C6F6C01B8ED994B319FF9454E1CFILE: 04. Bill Champlin & Patti LaBelle - The Last Unbroken Heart.flac Size: 21851922 Hash: B56F439C2943EE85B58943A242E48484 Accuracy: -m0 Conclusion: CDDA 100% Signature: BA618CC3ECB2FC9072EC795995D29D503871DC31FILE: 05. Jan Hammer - Crockett''s Theme (Instrumental).flac Size: 21089145 Hash: EB79D47DA4A71CFB8531A6966AB0078F Accuracy: -m0 Conclusion: CDDA 100% Signature: 152E4899CE9F5BAC6B14C4EE58670BA84E4C1CA1FILE: 06. Andy Taylor - When The Rain Comes Down.flac Size: 26474106 Hash: D37E3EC82E89990205C06868B39FCA66 Accuracy: -m0 Conclusion: CDDA 100% Signature: DBEBB75287988BEE0D231C99D24111842828B3A6FILE: 07. Roxy Music - Lover.flac Size: 23359032 Hash: 3C654FFCF69909A329EBB6D3AAA48CA2 Accuracy: -m0 Conclusion: CDDA 100% Signature: 36177DE43432DF3C03F8A2C0FAC97B04EB3A69D4FILE: 08. Jackson Browne - Lives In The Balance.flac Size: 24889507 Hash: 313D4F1CE292B5E39492222150926499 Accuracy: -m0 Conclusion: CDDA 100% Signature: BAB32D4A10555C8F80A47F9C1E71AFF0E4D16AFFFILE: 09. The Damned - In Dulce Decorum.flac Size: 33966804 Hash: FE3F97AC5AB319F75027EC8E7163BF6D Accuracy: -m0 Conclusion: CDDA 99% Signature: DC9E3E0B3F87793EC012EC0982910440B6418677FILE: 10. Jan Hammer - Miami Vice - New York Theme (Instrumental).flac Size: 20295485 Hash: 4EDE118E1A301E2143F0F7469EC6446F Accuracy: -m0 Conclusion: CDDA 100% Signature: 9284E888B7EFE9F71E09FA5620FF40A505B6AB62FILE: 11. Jan Hammer - The Original Miami Vice Theme (Instrumental).flac Size: 6948503 Hash: BED791935106537055850678F6304C77 Accuracy: -m0 Conclusion: CDDA 100% Signature: 6394EEDBB04163DB6F0B34FB0D7ADB45958BB5C2
[CUETools log; Date: 22.01.2014 16:41:48; Version: 2.1.4]Pregap length 00:00:32.[CTDB TOCID: PuBETVlfuyKPlOePA5wo9jX0rIs-] found.Track | CTDB Status 1 | (4/4) Accurately ripped 2 | (4/4) Accurately ripped 3 | (4/4) Accurately ripped 4 | (4/4) Accurately ripped 5 | (4/4) Accurately ripped 6 | (4/4) Accurately ripped 7 | (4/4) Accurately ripped 8 | (4/4) Accurately ripped 9 | (1/4) Accurately ripped, or (1/4) differs in 447 samples @02:08:15,02:08:47,02:09:03,02:09:19,02:09:66,02:10:39,02:17:65,02:19:72,02:20:13,02:20:29,02:20:60,02:21:01,02:21:48,02:21:64,02:22:05-02:22:06,02:22:36-02:22:37,02:22:52-02:22:53,02:22:68-02:22:69,02:23:08,02:23:24-02:23:25,02:23:40-02:23:41,02:23:56-02:23:57,02:23:72,02:24:13,02:24:28-02:24:29,02:24:44,02:24:60-02:24:61,02:25:01,02:25:16-02:25:17,02:25:32-02:25:33,02:25:48-02:25:49,02:25:64,02:26:04-02:26:05,02:26:20-02:26:21,02:26:36-02:26:37,02:26:52,02:26:68,02:27:08-02:27:09,02:27:24-02:27:25,02:27:40-02:27:41,02:27:55-02:27:56,02:27:71-02:27:72,02:28:12-02:28:13,02:28:28-02:28:29,02:29:32, or (1/4) differs in 361 samples @02:07:43,02:08:16,02:08:47,02:09:03-02:09:04,02:09:19,02:10:39,02:17:65,02:19:72,02:20:13,02:20:29,02:20:44,02:21:48,02:21:64,02:22:05-02:22:06,02:22:36-02:22:37,02:22:52-02:22:53,02:22:68-02:22:69,02:23:08,02:23:24-02:23:25,02:23:40-02:23:41,02:23:56-02:23:57,02:23:72,02:24:13,02:24:28-02:24:29,02:24:44-02:24:45,02:24:60-02:24:61,02:25:01,02:25:17,02:25:32-02:25:33,02:25:48,02:25:64,02:26:04-02:26:05,02:26:20-02:26:21,02:26:36-02:26:37,02:26:52,02:26:68,02:27:08-02:27:09,02:27:24-02:27:25,02:27:40-02:27:41,02:27:56,02:27:71-02:27:72,02:28:13,02:28:28-02:28:29,02:28:44,02:29:32 10 | (4/4) Accurately ripped 11 | (4/4) Accurately ripped[AccurateRip ID: 00135c26-00a5734f-8b0a0f0b] found.Track [ CRC | V2 ] Status 01 [998bab7b|ce0297dc] (10+08/38) Accurately ripped 02 [4c7f6df1|ce238a48] (10+08/37) Accurately ripped 03 [2dfa5959|74ee9fef] (10+08/36) Accurately ripped 04 [f0c50d68|c5373168] (10+08/37) Accurately ripped 05 [62028f68|d5397eea] (10+08/37) Accurately ripped 06 [623b405c|4e5cf8c2] (10+08/38) Accurately ripped 07 [f8a8e95e|b67c0441] (10+08/38) Accurately ripped 08 [cbb1a69e|6c77937b] (10+08/38) Accurately ripped 09 [9344b1e7|d1348e83] (10+08/38) Accurately ripped 10 [d4499fb3|6dd5957f] (10+08/37) Accurately ripped 11 [6232c03a|aef73c49] (10+08/38) Accurately rippedOffsetted by 664: 01 [bd2cd40b] (10/38) Accurately ripped 02 [afe7f299] (10/37) Accurately ripped 03 [db095981] (10/36) Accurately ripped 04 [84a54d90] (10/37) Accurately ripped 05 [16226ea8] (10/37) Accurately ripped 06 [b577ac14] (10/38) Accurately ripped 07 [01b0413e] (10/38) Accurately ripped 08 [2f4fda2e] (10/38) Accurately ripped 09 [1b442a9f] (10/38) Accurately ripped 10 [eb95c473] (10/37) Accurately ripped 11 [302db42a] (10/38) Accurately rippedOffsetted by -5: 01 [04128d7d] (00/38) No match (V2 was not tested) 02 [e46c859e] (00/37) No match (V2 was not tested) 03 [7af098f6] (00/36) No match (V2 was not tested) 04 [ca423505] (00/37) No match (V2 was not tested) 05 [92637a10] (00/37) No match (V2 was not tested) 06 [d5446f5b] (00/38) No match (V2 was not tested) 07 [0ef4097a] (00/38) No match (V2 was not tested) 08 [ff60a700] (00/38) No match (V2 was not tested) 09 [5303ed86] (00/38) No match (V2 was not tested) 10 [0260918b] (00/37) No match (V2 was not tested) 11 [5ccab148] (00/38) No match (V2 was not tested)Offsetted by 987: 01 [a85698bd] (00/38) No match (V2 was not tested) 02 [bfe092be] (00/37) No match (V2 was not tested) 03 [a27f4c16] (00/36) No match (V2 was not tested) 04 [6fa9e825] (00/37) No match (V2 was not tested) 05 [7a7a6b10] (00/37) No match (V2 was not tested) 06 [ae2669bb] (00/38) No match (V2 was not tested) 07 [94bb26fa] (00/38) No match (V2 was not tested) 08 [8af38e40] (00/38) No match (V2 was not tested) 09 [b868ebe6] (00/38) No match (V2 was not tested) 10 [4a31f08b] (00/37) No match (V2 was not tested) 11 [8d6fe008] (00/38) No match (V2 was not tested)

Track Peak [ CRC32 ] [W/O NULL] [ LOG ] -- 86,7 [17EE2C8B] [6ED946B2] 01 84,3 [80AF8981] [355A8FAF] CRC32 02 79,2 [A0369AC9] [514B5795] CRC32 03 86,7 [1A73A0BA] [E269C8E5] CRC32 04 70,3 [F30F2EEE] [D22D3144] CRC32 05 46,8 [9D524237] [CD9181C5] CRC32 06 69,2 [E67F3FC3] [DA1455BD] CRC32 07 81,3 [21609F6E] [BFDFC888] CRC32 08 65,5 [A5BF0604] [6969867E] CRC32 09 81,6 [A758736F] [D56B53D7] CRC32 10 73,9 [8C9FA3FD] [B8F5CAFD] CRC32 11 66,8 [871901F5] [484B0025] CRC32

Disc 3:
01. Sheena Easton - Follow My Rainbow [4:59]
02. The Hooters - Satellite [4:19]
03. The Stray Cats - Looking For Someone To Love [1:52]
04. Yello - Moon On Ice [4:18]
05. Jan Hammer - New York Theme [3:47]
06. Don Henley - Dirty Laundry [5:39]
07. James Brown - I Got You (I Feel Good) [2:46]
08. Mitch Ryder & The Detroit Wheels - Devil With A Blue Dress On - Good Golly Miss Molly (Medley) [3:07]
09. Yello - Call It Love [5:06]
10. Jan Hammer - The Wedding [3:24]
Exact Audio Copy V0.99 prebeta 5 from 4. May 2009

EAC extraction logfile from 10. February 2010, 21:25

Various / Miami Vice - The Ultimate Collection (CD3)

Used drive : _NEC DVD_RW ND-1300A Adapter: 3 ID: 0

Read mode : SecureUtilize accurate stream : YesDefeat audio cache : YesMake use of C2 pointers : No

Read offset correction : 48Overread into Lead-In and Lead-Out : NoFill up missing offset samples with silence : YesDelete leading and trailing silent blocks : NoNull samples used in CRC calculations : YesUsed interface : Native Win32 interface for Win NT & 2000Gap handling : Appended to previous track

Used output format : User Defined EncoderSelected bitrate : 320 kBit/sQuality : HighAdd ID3 tag : NoCommand line compressor : D:\EAC flac\FLAC\flac.exeAdditional command line options : -V -8 -T "artist=%a" -T "title=%t" -T "album=%g" -T "date=%y" -T "tracknumber=%n" -T "genre=%m" %s

TOC of the extracted CD

Track | Start | Length | Start sector | End sector --------------------------------------------------------- 1 | 0:00.33 | 4:59.12 | 33 | 22469 2 | 4:59.45 | 4:19.10 | 22470 | 41904 3 | 9:18.55 | 1:52.25 | 41905 | 50329 4 | 11:11.05 | 4:17.65 | 50330 | 69669 5 | 15:28.70 | 3:46.50 | 69670 | 86669 6 | 19:15.45 | 5:38.45 | 86670 | 112064 7 | 24:54.15 | 2:46.35 | 112065 | 124549 8 | 27:40.50 | 3:06.73 | 124550 | 138572 9 | 30:47.48 | 5:06.00 | 138573 | 161522 10 | 35:53.48 | 3:23.60 | 161523 | 176807

Track 1

Filename D:\EACrips\Various - 2004 - Miami Vice - The Ultimate Collection (CD3) [FLAC]\01 - Sheena Easton - Follow My Rainbow .wav

Pre-gap length 0:00:02.44

Peak level 100.0 % Track quality 100.0 % Test CRC 4ACD3348 Copy CRC 4ACD3348 Accurately ripped (confidence 2) [6B852991] Copy OK

Track 2

Filename D:\EACrips\Various - 2004 - Miami Vice - The Ultimate Collection (CD3) [FLAC]\02 - The Hooters - Satellite .wav

Pre-gap length 0:00:01.86

Peak level 93.2 % Track quality 100.0 % Test CRC A653EB85 Copy CRC A653EB85 Accurately ripped (confidence 2) [6DA5B4E1] Copy OK

Track 3

Filename D:\EACrips\Various - 2004 - Miami Vice - The Ultimate Collection (CD3) [FLAC]\03 - The Stray Cats - Looking For Someone To Love .wav

Pre-gap length 0:00:02.20

Peak level 81.7 % Track quality 100.0 % Test CRC B0A944F0 Copy CRC B0A944F0 Accurately ripped (confidence 2) [30A75EA3] Copy OK

Track 4

Filename D:\EACrips\Various - 2004 - Miami Vice - The Ultimate Collection (CD3) [FLAC]\04 - Yello - Moon On Ice .wav

Pre-gap length 0:00:01.36

Peak level 100.0 % Track quality 100.0 % Test CRC 3087D052 Copy CRC 3087D052 Accurately ripped (confidence 2) [07D2C3E8] Copy OK

Track 5

Filename D:\EACrips\Various - 2004 - Miami Vice - The Ultimate Collection (CD3) [FLAC]\05 - Jan Hammer - New York Theme .wav

Pre-gap length 0:00:03.96

Peak level 100.0 % Track quality 100.0 % Test CRC CC8BFCF7 Copy CRC CC8BFCF7 Accurately ripped (confidence 2) [893E364B] Copy OK

Track 6

Filename D:\EACrips\Various - 2004 - Miami Vice - The Ultimate Collection (CD3) [FLAC]\06 - Don Henley - Dirty Laundry .wav

Pre-gap length 0:00:04.22

Peak level 95.5 % Track quality 100.0 % Test CRC C3CC3128 Copy CRC C3CC3128 Accurately ripped (confidence 2) [8E6041B4] Copy OK

Track 7

Filename D:\EACrips\Various - 2004 - Miami Vice - The Ultimate Collection (CD3) [FLAC]\07 - James Brown - I Got You (I Feel Good) .wav

Pre-gap length 0:00:03.02

Peak level 95.7 % Track quality 100.0 % Test CRC 98BD9F19 Copy CRC 98BD9F19 Accurately ripped (confidence 2) [A364FD02] Copy OK

Track 8

Filename D:\EACrips\Various - 2004 - Miami Vice - The Ultimate Collection (CD3) [FLAC]\08 - Good Golly Miss Molly (Medley) .wav

Pre-gap length 0:00:02.00

Peak level 82.4 % Track quality 99.9 % Test CRC E8600757 Copy CRC E8600757 Accurately ripped (confidence 2) [C9C88EA2] Copy OK

Track 9

Filename D:\EACrips\Various - 2004 - Miami Vice - The Ultimate Collection (CD3) [FLAC]\09 - Yello - Call It Love .wav

Pre-gap length 0:00:02.44

Peak level 100.0 % Track quality 100.0 % Test CRC BFD92AB1 Copy CRC BFD92AB1 Accurately ripped (confidence 2) [8CC46932] Copy OK

Track 10

Filename D:\EACrips\Various - 2004 - Miami Vice - The Ultimate Collection (CD3) [FLAC]\10 - Jan Hammer - The Wedding .wav

Pre-gap length 0:00:02.26

Peak level 95.0 % Track quality 100.0 % Test CRC 4AD6B5EB Copy CRC 4AD6B5EB Accurately ripped (confidence 2) [0D72B21C] Copy OK

All tracks accurately ripped

No errors occurred

End of status report
REM GENRE SoundtrackREM DATE 2004REM DISCID 8109350AREM COMMENT "ExactAudioCopy v0.99pb5"FILE "01. Sheena Easton - Follow My Rainbow.wav" WAVE TRACK 01 AUDIO PREGAP 00:00:33 TITLE "Follow My Rainbow" PERFORMER "Sheena Easton" INDEX 01 00:00:00 TRACK 02 AUDIO TITLE "Satellite" PERFORMER "The Hooters" INDEX 00 04:57:22FILE "02. The Hooters - Satellite.wav" WAVE INDEX 01 00:00:00 TRACK 03 AUDIO TITLE "Looking For Someone To Love" PERFORMER "The Stray Cats" INDEX 00 04:16:70FILE "03. The Stray Cats - Looking For Someone To Love.wav" WAVE INDEX 01 00:00:00 TRACK 04 AUDIO TITLE "Moon On Ice" PERFORMER "Yello" INDEX 00 01:50:73FILE "04. Yello - Moon On Ice.wav" WAVE INDEX 01 00:00:00 TRACK 05 AUDIO TITLE "New York Theme" PERFORMER "Jan Hammer" INDEX 00 04:13:68FILE "05. Jan Hammer - New York Theme.wav" WAVE INDEX 01 00:00:00 TRACK 06 AUDIO TITLE "Dirty Laundry" PERFORMER "Don Henley" INDEX 00 03:42:33FILE "06. Don Henley - Dirty Laundry.wav" WAVE INDEX 01 00:00:00 TRACK 07 AUDIO TITLE "I Got You (I Feel Good)" PERFORMER "James Brown" INDEX 00 05:35:43FILE "07. James Brown - I Got You (I Feel Good).wav" WAVE INDEX 01 00:00:00 TRACK 08 AUDIO TITLE "Devil With A Blue Dress On - Good Golly Miss Molly (Medley)" PERFORMER "Mitch Ryder & The Detroit Wheels" INDEX 00 02:44:35FILE "08. Mitch Ryder & The Detroit Wheels - Devil With A Blue Dress On - Good Golly Miss Molly (Medley).wav" WAVE INDEX 01 00:00:00 TRACK 09 AUDIO TITLE "Call It Love" PERFORMER "Yello" INDEX 00 03:04:40FILE "09. Yello - Call It Love.wav" WAVE INDEX 01 00:00:00 TRACK 10 AUDIO TITLE "The Wedding" PERFORMER "Jan Hammer" INDEX 00 05:03:55FILE "10. Jan Hammer - The Wedding.wav" WAVE INDEX 01 00:00:00
-----------------------

DON''T MODIFY THIS FILE

-----------------------

PERFORMER: auCDtect Task Manager, ver. 1.6.0 RC1 build 1.6.0.1Copyright (c) 2008-2010 y-soft. All rights reservedhttp://y-soft.org

ANALYZER: auCDtect: CD records authenticity detector, version 0.8.2Copyright (c) 2004 Oleg Berngardt. All rights reserved.Copyright (c) 2004 Alexander Djourik. All rights reserved.

FILE: 01. Sheena Easton - Follow My Rainbow.flac Size: 35357381 Hash: 8A4CBDF300DB57A598C00D4D5E4248CE Accuracy: -m0 Conclusion: CDDA 100% Signature: 334CC531053EDEE3F7ABE961434672563CBE9576FILE: 02. The Hooters - Satellite.flac Size: 31406117 Hash: 2C39BE98240843D0B33F55511DB18BE1 Accuracy: -m0 Conclusion: MPEG 91% Signature: 0EC418416F1528D451DA8ADE2497242375FEF9A7FILE: 03. The Stray Cats - Looking For Someone To Love.flac Size: 12526045 Hash: 5C0CFC69580B6280708ADEE470664BDB Accuracy: -m0 Conclusion: CDDA 100% Signature: 27ED05FCDAB2008D77C6BCA88AD0E37B496810F1FILE: 04. Yello - Moon On Ice.flac Size: 29097091 Hash: 859A0D991894172B8C027792CE23AD30 Accuracy: -m0 Conclusion: CDDA 100% Signature: 6D34C36474F15D365AFAAF5DB981F485F5DF114CFILE: 05. Jan Hammer - New York Theme.flac Size: 26981246 Hash: 7B27C977B204038824DE33DF48B2B773 Accuracy: -m0 Conclusion: CDDA 100% Signature: 6CF39983195D2F39B008F1F05A1D1835F486D5E9FILE: 06. Don Henley - Dirty Laundry.flac Size: 37673551 Hash: 00C194F94B8ED581E80D758C190546C0 Accuracy: -m0 Conclusion: CDDA 100% Signature: D185B006911538A330CAF0BC2C1CB82B9D2FB839FILE: 07. James Brown - I Got You (I Feel Good).flac Size: 16700258 Hash: F1A9C123C9B5DF047B8D62311DEE9E44 Accuracy: -m0 Conclusion: CDDA 100% Signature: 8356A048E66356BE8BE60FAC5E91615EFCDBCE90FILE: 08. Mitch Ryder & The Detroit Wheels - Devil With A Blue Dress On - Good Golly Miss Molly (Medley).flac Size: 21510724 Hash: CCE6004A301D6B51C1365E8AAB1B3952 Accuracy: -m0 Conclusion: CDDA 100% Signature: 00F774F98DEEF7582B5CC4F604EC4B6F20E6B3CCFILE: 09. Yello - Call It Love.flac Size: 34285309 Hash: A71B007FFB5849362FEFC7E5BC91B0B4 Accuracy: -m0 Conclusion: CDDA 100% Signature: 584F1F79432A3C4DE4BBE061AE9F837915304C2AFILE: 10. Jan Hammer - The Wedding.flac Size: 21052186 Hash: C93E2033871ECAE7AA305B984CECA3CF Accuracy: -m0 Conclusion: CDDA 100% Signature: 4C2C882B83D1A11D260E438F8A1369D85C037435
[CUETools log; Date: 22.01.2014 16:41:55; Version: 2.1.4]Pregap length 00:00:33.[CTDB TOCID: hKObGevXu8sLzOqnUj4RJc7Ye1I-] found.Track | CTDB Status 1 | (1/1) Accurately ripped 2 | (1/1) Accurately ripped 3 | (1/1) Accurately ripped 4 | (1/1) Accurately ripped 5 | (1/1) Accurately ripped 6 | (1/1) Accurately ripped 7 | (1/1) Accurately ripped 8 | (1/1) Accurately ripped 9 | (1/1) Accurately ripped 10 | (1/1) Accurately ripped[AccurateRip ID: 000f0615-0077741c-8109350a] found.Track [ CRC | V2 ] Status 01 [6b852991|7a7a42b4] (07+05/23) Accurately ripped 02 [6da5b4e1|55cab38e] (07+05/24) Accurately ripped 03 [30a75ea3|675f2132] (07+05/24) Accurately ripped 04 [07d2c3e8|6e16f502] (07+05/24) Accurately ripped 05 [893e364b|c50ca7fa] (07+05/23) Accurately ripped 06 [8e6041b4|6461db5f] (07+05/24) Accurately ripped 07 [a364fd02|0e183a11] (07+05/24) Accurately ripped 08 [c9c88ea2|2ee1e6b8] (07+05/24) Accurately ripped 09 [8cc46932|91af619e] (07+05/24) Accurately ripped 10 [0d72b21c|7a1fafb5] (07+05/23) Accurately rippedOffsetted by 664: 01 [42680bb5] (06/23) Accurately ripped 02 [74136801] (07/24) Accurately ripped 03 [700d181b] (07/24) Accurately ripped 04 [15cd24fc] (07/24) Accurately ripped 05 [73fc23db] (07/23) Accurately ripped 06 [ff02439c] (07/24) Accurately ripped 07 [82bf163a] (07/24) Accurately ripped 08 [b001ed2a] (07/24) Accurately ripped 09 [89c48cea] (07/24) Accurately ripped 10 [39fc7bf4] (07/23) Accurately ripped

Track Peak [ CRC32 ] [W/O NULL] [ LOG ] -- 100,0 [1FA7ADA7] [34A07FF7] 01 100,0 [4ACD3348] [2FDB4961] CRC32 02 93,2 [A653EB85] [E93FFB2D] CRC32 03 81,7 [B0A944F0] [8D0A3865] CRC32 04 100,0 [3087D052] [F2AD13A4] CRC32 05 100,0 [CC8BFCF7] [A3274F19] CRC32 06 95,5 [C3CC3128] [344F8B05] CRC32 07 95,7 [98BD9F19] [EA7D6775] CRC32 08 82,4 [E8600757] [75478166] CRC32 09 100,0 [BFD92AB1] [DF9940D5] CRC32 10 95,0 [4AD6B5EB] [93EC3F04] CRC32

R.G. Soundtracks

Трекер:  [ 22-Янв-2014 19:09 ]

  

Скачать .torrent

Размер .torrent файла 19 KB


Размер: 768 MB
Хэш (hash) релиза: 8155d3d6cd25718cfa9d3e22872bc4a3ec7bf00d

Еще никто не оставлял запись к записи скачать торрент Полиция Майами: Отдел нравов Miami Vice - The Ultimate Collection . Будь первым!

!Обратная связь