Скачать через торрент музыку бесплатно без регистрации torrent

Если у вас наблюдаются проблемы со скриншотами, переходом по ссылками, скачиванием торрентов - проблемы в блокировщике рекламы AdBlock. #хорошегоДня!


Статистика раздачи
Размер:  440 MB   |    Зарегистрирован:  3 года 10 месяцев   |    .torrent скачан:  211 раз   |   
Раздают:  1  
   
Загрузка...
 
Автор Сообщение

Galfimbul

avatar Galfimbul


♦ Peregoyo Y Su Combo Vacana - El Rey Del Currulao {2000} ♦

Жанр: Salsa, Tropical, Colombian, South American Tradition
Носитель: CD
Год издания: 2004
Издатель (лейбл): Otrabanda Records
Номер по каталогу: OTB 05
Аудиокодек: FLAC (*.flac)
Тип рипа: image+.cue
Битрейт аудио: lossless
Продолжительность: 00:46:21
Источник (релизер): dreadbull
Наличие сканов в содержимом раздачи: да

Треклист:

01. La Iguana [04:36]
02. Sancocho De Perro [04:08]
03. Granito De Oro [05:24]
04. La Tintorera [04:33]
05. Adivinanza [04:37]
06. La Cachaloa [04:30]
07. Las Mujeres De Mi Tierra [04:37]
08. El Mare.o [05:01]
09. Mi Timbiqui [05:17]
10. Caravana [03:34]
Exact Audio Copy V1.0 beta 3 from 29. August 2011

EAC extraction logfile from 10. January 2014, 19:01

Peregoyo / Peregoyo Y Su Combo Vacana

Used drive : ASUS DRW-22B2L Adapter: 0 ID: 0

Read mode : SecureUtilize accurate stream : YesDefeat audio cache : YesMake use of C2 pointers : No

Read offset correction : 6Overread into Lead-In and Lead-Out : NoFill up missing offset samples with silence : YesDelete leading and trailing silent blocks : NoNull samples used in CRC calculations : YesUsed interface : Native Win32 interface for Win NT & 2000

Used output format : User Defined EncoderSelected bitrate : 128 kBit/sQuality : HighAdd ID3 tag : YesCommand line compressor : C:\Program Files (x86)\FLAC\flac.exeAdditional command line options : -8 -V -T "ARTIST=%artist%" -T "TITLE=%title%" -T "ALBUM=%albumtitle%" -T "DATE=%year%" -T "TRACKNUMBER=%tracknr%" -T "GENRE=%genre%" -T "PERFORMER=%albuminterpret%" -T "COMPOSER=%composer%" %haslyrics%--tag-from-file=LYRICS="%lyricsfile%"%haslyrics% -T "ALBUMARTIST=%albumartist%" -T "DISCNUMBER=%cdnumber%" -T "TOTALDISCS=%totalcds%" -T "TOTALTRACKS=%numtracks%" -T "COMMENT=%comment%" %source% -o %dest%

TOC of the extracted CD

Track | Start | Length | Start sector | End sector --------------------------------------------------------- 1 | 0:00.00 | 4:36.02 | 0 | 20701 2 | 4:36.02 | 4:08.01 | 20702 | 39302 3 | 8:44.03 | 5:24.31 | 39303 | 63633 4 | 14:08.34 | 4:33.16 | 63634 | 84124 5 | 18:41.50 | 4:37.29 | 84125 | 104928 6 | 23:19.04 | 4:30.48 | 104929 | 125226 7 | 27:49.52 | 4:37.38 | 125227 | 146039 8 | 32:27.15 | 5:01.68 | 146040 | 168682 9 | 37:29.08 | 5:17.74 | 168683 | 192531 10 | 42:47.07 | 3:34.39 | 192532 | 208620

Range status and errors

Selected range

Filename G:\Donkey Files\Peregoyo y su Combo Vacana - El Rey del Currulao (2004, Otrabanda) [eac-flac-scans] byDrBull\Peregoyo Y Su Combo Vacana.wav

Peak level 98.8 % Extraction speed 3.1 X Range quality 100.0 % Test CRC 0EA621AA Copy CRC 0EA621AA Copy OK

No errors occurred

AccurateRip summary

Track 1 accurately ripped (confidence 1) [E7F9265C] (AR v1)Track 2 accurately ripped (confidence 1) [384AA86B] (AR v1)Track 3 accurately ripped (confidence 1) [A9691B1E] (AR v1)Track 4 accurately ripped (confidence 1) [19437026] (AR v1)Track 5 accurately ripped (confidence 1) [509B5253] (AR v1)Track 6 accurately ripped (confidence 1) [1D42A28F] (AR v1)Track 7 accurately ripped (confidence 1) [1B37ABDF] (AR v1)Track 8 accurately ripped (confidence 1) [808D6316] (AR v1)Track 9 accurately ripped (confidence 1) [D6ACCD01] (AR v1)Track 10 accurately ripped (confidence 1) [77A42551] (AR v1)

All tracks accurately ripped

End of status report

---- CUETools DB Plugin V2.1.3

[CTDB TOCID: C_XGHjVi2AjsyqlYOSQ9OEq5wA8-] disk not present in database, Submit result: C_XGHjVi2AjsyqlYOSQ9OEq5wA8- has been uploaded
REM GENRE TropicalREM DISCID 800ADD0AREM COMMENT "ExactAudioCopy v1.0b3"PERFORMER "Peregoyo"TITLE "Peregoyo Y Su Combo Vacana"FILE "Peregoyo Y Su Combo Vacana.flac" WAVE TRACK 01 AUDIO TITLE "La Iguana" PERFORMER "Peregoyo" INDEX 01 00:00:00 TRACK 02 AUDIO TITLE "Sancocho De Perro" PERFORMER "Peregoyo" INDEX 00 04:34:02 INDEX 01 04:36:02 TRACK 03 AUDIO TITLE "Granito De Oro" PERFORMER "Peregoyo" INDEX 00 08:42:03 INDEX 01 08:44:03 TRACK 04 AUDIO TITLE "La Tintorera" PERFORMER "Peregoyo" INDEX 00 14:06:34 INDEX 01 14:08:34 TRACK 05 AUDIO TITLE "Adivinanza" PERFORMER "Peregoyo" INDEX 00 18:39:50 INDEX 01 18:41:50 TRACK 06 AUDIO TITLE "La Cachaloa" PERFORMER "Peregoyo" INDEX 00 23:17:04 INDEX 01 23:19:04 TRACK 07 AUDIO TITLE "Las Mujeres De Mi Tierra" PERFORMER "Peregoyo" INDEX 00 27:47:52 INDEX 01 27:49:52 TRACK 08 AUDIO TITLE "El Mare.o" PERFORMER "Peregoyo" INDEX 00 32:25:15 INDEX 01 32:27:15 TRACK 09 AUDIO TITLE "Mi Timbiqui" PERFORMER "Peregoyo" INDEX 00 37:27:08 INDEX 01 37:29:08 TRACK 10 AUDIO TITLE "Caravana" PERFORMER "Peregoyo" INDEX 00 42:45:07 INDEX 01 42:47:07
Francisco "Pacho" Peña - trumpet, musical director, arranger;
Aníbal López - timbales, vocals (#2,4,6,9);
Pablo Emílio Redín - vocals (#1,5,7);
Ramón Sánchez - vocals (#3,8);
Arcesio "Chechundino" López - congas;
Bolivar Castro - bass;
Luis Diuza - guitar;
José A. Reina - trumpet;
Luis A. Murillo - alto sax;
Alex Duque - percussion;
William Murcia - trumpet;
Juan Benavides - alto sax.


Трекер:  [ 24-Янв-2014 19:09 ]

  

Скачать .torrent

Размер .torrent файла 18 KB


Размер: 440 MB
Хэш (hash) релиза: 04a0bb592d91ebf828d14291156c4bd316a52f72

Еще никто не оставлял запись к записи скачать торрент . Будь первым!

!Обратная связь