Скачать через торрент музыку Backdraft Обратная тяга бесплатно без регистрации torrent

Если у вас наблюдаются проблемы со скриншотами, переходом по ссылками, скачиванием торрентов - проблемы в блокировщике рекламы AdBlock. #хорошегоДня!


Статистика раздачи
Размер:  316 MB   |    Зарегистрирован:  6 лет 10 месяцев   |    .torrent скачан:  56 раз   |   
Раздают:  1  
   
Загрузка...
 
Автор Сообщение

Комедиант

avatar Комедиант


Backdraft / Обратная тяга (by Hans Zimmer)

Жанр: Score
Год выпуска диска: 2005
Производитель диска: USA
Аудио кодек: FLAC
Тип рипа: tracks+.cue
Битрейт аудио: lossless
Продолжительность: 0:52:57
1. Set Me In Motion - Bruce Hornsby and The Range
2. Fighting 17th
3. Brothers
4. The Arsonist's Waltz
5. 335
6. Burn It All
7. You Go, We Go
8. Fahrenheit 451
9. Show Me Your Firetruck
10. The Show Must Go On - Bruce Hornsby and The Range
11. Hans Zimmer Interview (Bonus Track)

 
EAC extraction logfile from 16. April 2007, 23:55 for CDHans Zimmer / Backdraft

Used drive : PIONEER DVD-RW DVR-108 Adapter: 3 ID: 0Read mode : Secure with NO C2, accurate stream, disable cacheRead offset correction : 48Overread into Lead-In and Lead-Out : No

Used output format : C:\Program Files\FLAC\flac.exe (User Defined Encoder) 320 kBit/s Additional command line options : -8 -A tukey(0.25) -A gauss(0.1875) -b 4096 -V -T "artist=%a" -T "title=%t" -T "album=%g" -T "date=%y" -T "tracknumber=%n" -T "genre=%m" %s --sector-align

Other options : Fill up missing offset samples with silence : Yes Delete leading and trailing silent blocks : No Installed external ASPI interface

Track 1 Filename E:\Downloads\EAC Files\01 - Hans Zimmer - Backdraft - Bruce Hornsby & The Range - Set Me In Motion.wav

Pre-gap length 0:00:02.00

Peak level 100.0 % Track quality 100.0 % Test CRC BC54D040 Copy CRC BC54D040 Copy OK

Track 2 Filename E:\Downloads\EAC Files\02 - Hans Zimmer - Backdraft - Fighting 17th.wav

Pre-gap length 0:00:01.25

Peak level 97.7 % Track quality 100.0 % Test CRC F5BA16F1 Copy CRC F5BA16F1 Copy OK

Track 3 Filename E:\Downloads\EAC Files\03 - Hans Zimmer - Backdraft - Brothers.wav

Pre-gap length 0:00:01.29

Peak level 96.1 % Track quality 100.0 % Test CRC 4EE790C9 Copy CRC 4EE790C9 Copy OK

Track 4 Filename E:\Downloads\EAC Files\04 - Hans Zimmer - Backdraft - The Arsonist's Waltz.wav

Pre-gap length 0:00:00.14

Peak level 86.7 % Track quality 99.9 % Test CRC 5E6E59B3 Copy CRC 5E6E59B3 Copy OK

Track 5 Filename E:\Downloads\EAC Files\05 - Hans Zimmer - Backdraft - 335.wav

Pre-gap length 0:00:00.32

Peak level 95.3 % Track quality 100.0 % Test CRC 73B3F0CB Copy CRC 73B3F0CB Copy OK

Track 6 Filename E:\Downloads\EAC Files\06 - Hans Zimmer - Backdraft - Burn It All.wav

Pre-gap length 0:00:00.23

Peak level 97.7 % Track quality 100.0 % Test CRC 0BC77E89 Copy CRC 0BC77E89 Copy OK

Track 7 Filename E:\Downloads\EAC Files\07 - Hans Zimmer - Backdraft - You Go, We Go.wav

Peak level 94.3 % Track quality 100.0 % Test CRC 6B27EF34 Copy CRC 6B27EF34 Copy OK

Track 8 Filename E:\Downloads\EAC Files\08 - Hans Zimmer - Backdraft - Fahrenheit 451.wav

Pre-gap length 0:00:00.08

Peak level 97.7 % Track quality 100.0 % Test CRC 35A3A340 Copy CRC 35A3A340 Copy OK

Track 9 Filename E:\Downloads\EAC Files\09 - Hans Zimmer - Backdraft - Show Me Your Firetruck.wav

Peak level 100.0 % Track quality 100.0 % Test CRC 58CBDFE2 Copy CRC 58CBDFE2 Copy OK

Track 10 Filename E:\Downloads\EAC Files\10 - Hans Zimmer - Backdraft - Bruce Hornsby & The Range - The Show Goes On.wav

Pre-gap length 0:00:03.05

Peak level 100.0 % Track quality 100.0 % Test CRC 8B70A0FC Copy CRC 8B70A0FC Copy OK

Track 11 Filename E:\Downloads\EAC Files\11 - Hans Zimmer - Backdraft - Hans Zimmer Interview (Bonus Track).wav

Pre-gap length 0:00:04.60

Peak level 100.0 % Track quality 100.0 % Test CRC B78393CE Copy CRC B78393CE Copy OK

No errors occured

End of status report


Трекер:  [ 07-Фев-2011 21:41 ]

  

Скачать .torrent

Размер .torrent файла 14 KB


Размер: 316 MB
Хэш (hash) релиза: a156184b98eb6d50000b7d58edfea1c2ca0b5406

Еще никто не оставлял запись к записи скачать торрент Backdraft Обратная тяга . Будь первым!

!Обратная связь