Скачать через торрент музыку Бестолковые Clueless - 1995, FLAC бесплатно без регистрации torrent

Если у вас наблюдаются проблемы со скриншотами, переходом по ссылками, скачиванием торрентов - проблемы в блокировщике рекламы AdBlock. #хорошегоДня!


Статистика раздачи
Размер:  351 MB   |    Зарегистрирован:  6 лет 10 месяцев   |    .torrent скачан:  54 раза   |   
Раздают:  1  
   
Загрузка...
 
Автор Сообщение

Комедиант

avatar Комедиант


Бестолковые / Clueless

Жанр: Soundtrack
Год выпуска диска: 1995
Производитель диска: Capitol Records (Канада)
Catalog#: 7243 8 32617 2 7
Аудио кодек: FLAC
Тип рипа: tracks+.cue
Битрейт аудио: lossless
Продолжительность: 51 мин 32 сек
Трэклист:
01. The Muffs - Kids In America {3:18}
02. Cracker - Shake Some Action {4:25}
03. Counting Crows - The Ghost in You {3:31}
04. Luscious Jackson - Here (Squirmel Mix) {3:34}
05. World Party - All the Young Dudes {4:00}
06. Radiohead - Fake Plastic Trees (Acoustic Version) {4:46}
07. Lightning Seeds - Change {4:01}
08. Smoking Popes - Need You Around {3:42}
09. Beastie Boys - Mullet Head {2:54}
10. Mighty Mighty Bosstones - Where'd You Go? {3:16}
11. Coolio - Rollin' with My Homies {4:06}
12. Supergrass - Alright {3:01}
13. Velocity Girl - My Forgotten Favorite {3:49}
14. Jill Sobule - Supermodel {3:08}
 
Exact Audio Copy V0.99 prebeta 5 from 4. May 2009

EAC extraction logfile from 6. February 2010, 15:56

Various / Clueless

Used drive : PLEXTOR DVDR PX-716A Adapter: 4 ID: 0

Read mode : SecureUtilize accurate stream : YesDefeat audio cache : YesMake use of C2 pointers : No

Read offset correction : 30Overread into Lead-In and Lead-Out : NoFill up missing offset samples with silence : YesDelete leading and trailing silent blocks : NoNull samples used in CRC calculations : YesUsed interface : Native Win32 interface for Win NT & 2000Gap handling : Appended to previous track

Used output format : User Defined EncoderSelected bitrate : 1024 kBit/sQuality : HighAdd ID3 tag : YesCommand line compressor : C:\Program Files (x86)\Exact Audio Copy\FLAC\FLAC.EXEAdditional command line options : -6 -V -T "ARTIST=%a" -T "TITLE=%t" -T "ALBUM=%g" -T "DATE=%y" -T "TRACKNUMBER=%n" -T "GENRE=%m" -T "COMMENT=%e" %s -o %d

TOC of the extracted CD

Track | Start | Length | Start sector | End sector --------------------------------------------------------- 1 | 0:00.00 | 3:18.30 | 0 | 14879 2 | 3:18.30 | 4:25.30 | 14880 | 34784 3 | 7:43.60 | 3:30.67 | 34785 | 50601 4 | 11:14.52 | 3:33.63 | 50602 | 66639 5 | 14:48.40 | 4:00.37 | 66640 | 84676 6 | 18:49.02 | 4:45.58 | 84677 | 106109 7 | 23:34.60 | 4:01.25 | 106110 | 124209 8 | 27:36.10 | 3:42.07 | 124210 | 140866 9 | 31:18.17 | 2:53.58 | 140867 | 153899 10 | 34:12.00 | 3:16.32 | 153900 | 168631 11 | 37:28.32 | 4:06.03 | 168632 | 187084 12 | 41:34.35 | 3:01.15 | 187085 | 200674 13 | 44:35.50 | 3:49.00 | 200675 | 217849 14 | 48:24.50 | 3:07.40 | 217850 | 231914

Track 1

Filename C:\Users\Admin\Documents\EAC Rips\01. The Muffs - Kids In America.wav

Pre-gap length 0:00:02.00

Peak level 94.3 % Track quality 100.0 % Test CRC 39C1F556 Copy CRC 39C1F556 Accurately ripped (confidence 6) [E7A5CF7C] Copy OK

Track 2

Filename C:\Users\Admin\Documents\EAC Rips\02. Cracker - Shake Some Action.wav

Pre-gap length 0:00:01.10

Peak level 93.2 % Track quality 100.0 % Test CRC D7333674 Copy CRC D7333674 Accurately ripped (confidence 6) [583F7034] Copy OK

Track 3

Filename C:\Users\Admin\Documents\EAC Rips\03. Counting Crows - The Ghost in You.wav

Pre-gap length 0:00:00.65

Peak level 98.8 % Track quality 100.0 % Test CRC 21197009 Copy CRC 21197009 Accurately ripped (confidence 7) [3E33E6E9] Copy OK

Track 4

Filename C:\Users\Admin\Documents\EAC Rips\04. Luscious Jackson - Here (Squirmel Mix).wav

Pre-gap length 0:00:01.22

Peak level 82.7 % Track quality 99.9 % Test CRC E0ACF5C2 Copy CRC E0ACF5C2 Accurately ripped (confidence 6) [F6846A73] Copy OK

Track 5

Filename C:\Users\Admin\Documents\EAC Rips\05. World Party - All the Young Dudes.wav

Pre-gap length 0:00:01.13

Peak level 87.2 % Track quality 100.0 % Test CRC AE81A92B Copy CRC AE81A92B Accurately ripped (confidence 7) [30BE005F] Copy OK

Track 6

Filename C:\Users\Admin\Documents\EAC Rips\06. Radiohead - Fake Plastic Trees (Acoustic Version).wav

Pre-gap length 0:00:00.67

Peak level 83.3 % Track quality 100.0 % Test CRC DA128A1F Copy CRC DA128A1F Accurately ripped (confidence 6) [595B1DE6] Copy OK

Track 7

Filename C:\Users\Admin\Documents\EAC Rips\07. Lightning Seeds - Change.wav

Pre-gap length 0:00:00.73

Peak level 90.2 % Track quality 100.0 % Test CRC 86E60CEA Copy CRC 86E60CEA Accurately ripped (confidence 6) [1E296A5B] Copy OK

Track 8

Filename C:\Users\Admin\Documents\EAC Rips\08. Smoking Popes - Need You Around.wav

Pre-gap length 0:00:01.15

Peak level 93.7 % Track quality 100.0 % Test CRC 04DFFDC5 Copy CRC 04DFFDC5 Accurately ripped (confidence 6) [2A288FBD] Copy OK

Track 9

Filename C:\Users\Admin\Documents\EAC Rips\09. Beastie Boys - Mullet Head.wav

Pre-gap length 0:00:01.40

Peak level 79.1 % Track quality 100.0 % Test CRC 0777C507 Copy CRC 0777C507 Accurately ripped (confidence 6) [9A4182FB] Copy OK

Track 10

Filename C:\Users\Admin\Documents\EAC Rips\10. Mighty Mighty Bosstones - Where'd You Go .wav

Pre-gap length 0:00:01.43

Peak level 91.4 % Track quality 100.0 % Test CRC 80EFA7A0 Copy CRC 80EFA7A0 Accurately ripped (confidence 6) [4000C718] Copy OK

Track 11

Filename C:\Users\Admin\Documents\EAC Rips\11. Coolio - Rollin' with My Homies.wav

Pre-gap length 0:00:00.70

Peak level 96.9 % Track quality 99.9 % Test CRC 9F24D229 Copy CRC 9F24D229 Accurately ripped (confidence 5) [D916D7AD] Copy OK

Track 12

Filename C:\Users\Admin\Documents\EAC Rips\12. Supergrass - Alright.wav

Pre-gap length 0:00:01.18

Peak level 92.8 % Track quality 100.0 % Test CRC 23407079 Copy CRC 23407079 Accurately ripped (confidence 7) [C348A630] Copy OK

Track 13

Filename C:\Users\Admin\Documents\EAC Rips\13. Velocity Girl - My Forgotten Favorite.wav

Pre-gap length 0:00:01.15

Peak level 89.0 % Track quality 100.0 % Test CRC 44F09065 Copy CRC 44F09065 Accurately ripped (confidence 6) [CEE4D8D5] Copy OK

Track 14

Filename C:\Users\Admin\Documents\EAC Rips\14. Jill Sobule - Supermodel.wav

Pre-gap length 0:00:01.65

Peak level 92.2 % Track quality 100.0 % Test CRC CB33347C Copy CRC CB33347C Accurately ripped (confidence 5) [604A70E7] Copy OK

All tracks accurately ripped

No errors occurred

End of status report
AUDIOCHECKER v2.0 beta (build 457) - by Dester - opdester@freemail.hu
~~~~~~~~~~~~~~~~~~~~~~~~~~~~~~~~~~
Started at: вторник, 09. 02. 2010. - 11:02.27
14 files found

01 -===- C:\- раздаю -\VA_-_Clueless_1995_(Soundtrack)_[http://рутраскер]\01. The Muffs - Kids In America.flac
Extracted successfully
Conclusion: this track is CDDA with probability 100%
Tempfile successfully deleted.

02 -===- C:\- раздаю -\VA_-_Clueless_1995_(Soundtrack)_[http://рутраскер]\02. Cracker - Shake Some Action.flac
Extracted successfully
Conclusion: this track is CDDA with probability 100%
Tempfile successfully deleted.

03 -===- C:\- раздаю -\VA_-_Clueless_1995_(Soundtrack)_[http://рутраскер]\03. Counting Crows - The Ghost in You.flac
Extracted successfully
Conclusion: this track is CDDA with probability 100%
Tempfile successfully deleted.

04 -===- C:\- раздаю -\VA_-_Clueless_1995_(Soundtrack)_[http://рутраскер]\04. Luscious Jackson - Here (Squirmel Mix).flac
Extracted successfully
Conclusion: this track is CDDA with probability 100%
Tempfile successfully deleted.

05 -===- C:\- раздаю -\VA_-_Clueless_1995_(Soundtrack)_[http://рутраскер]\05. World Party - All the Young Dudes.flac
Extracted successfully
Conclusion: this track is CDDA with probability 100%
Tempfile successfully deleted.

06 -===- C:\- раздаю -\VA_-_Clueless_1995_(Soundtrack)_[http://рутраскер]\06. Radiohead - Fake Plastic Trees (Acoustic Version).flac
Extracted successfully
Conclusion: this track is CDDA with probability 100%
Tempfile successfully deleted.

07 -===- C:\- раздаю -\VA_-_Clueless_1995_(Soundtrack)_[http://рутраскер]\07. Lightning Seeds - Change.flac
Extracted successfully
Conclusion: this track is CDDA with probability 100%
Tempfile successfully deleted.

08 -===- C:\- раздаю -\VA_-_Clueless_1995_(Soundtrack)_[http://рутраскер]\08. Smoking Popes - Need You Around.flac
Extracted successfully
Conclusion: this track is CDDA with probability 99%
Tempfile successfully deleted.

09 -===- C:\- раздаю -\VA_-_Clueless_1995_(Soundtrack)_[http://рутраскер]\09. Beastie Boys - Mullet Head.flac
Extracted successfully
Conclusion: this track is CDDA with probability 100%
Tempfile successfully deleted.

10 -===- C:\- раздаю -\VA_-_Clueless_1995_(Soundtrack)_[http://рутраскер]\10. Mighty Mighty Bosstones - Where'd You Go .flac
Extracted successfully
Conclusion: this track is CDDA with probability 99%
Tempfile successfully deleted.

11 -===- C:\- раздаю -\VA_-_Clueless_1995_(Soundtrack)_[http://рутраскер]\11. Coolio - Rollin' with My Homies.flac
Extracted successfully
Conclusion: this track is CDDA with probability 100%
Tempfile successfully deleted.

12 -===- C:\- раздаю -\VA_-_Clueless_1995_(Soundtrack)_[http://рутраскер]\12. Supergrass - Alright.flac
Extracted successfully
Conclusion: this track is CDDA with probability 100%
Tempfile successfully deleted.

13 -===- C:\- раздаю -\VA_-_Clueless_1995_(Soundtrack)_[http://рутраскер]\13. Velocity Girl - My Forgotten Favorite.flac
Extracted successfully
Conclusion: this track is CDDA with probability 100%
Tempfile successfully deleted.

14 -===- C:\- раздаю -\VA_-_Clueless_1995_(Soundtrack)_[http://рутраскер]\14. Jill Sobule - Supermodel.flac
Extracted successfully
Conclusion: this track is CDDA with probability 100%
Tempfile successfully deleted.

This album (VA_-_Clueless_1995_(Soundtrack)_[http://рутраскер]) seems to be CDDA with probability 99,86%

Finished at: вторник, 09. 02. 2010. - 11:14.22 (operation time: 0:11.55)
 
REM GENRE SoundtrackREM DATE 1995REM DISCID BE0C140EREM COMMENT "ExactAudioCopy v0.99pb5"CATALOG 0000000000000PERFORMER "Various"TITLE "Clueless"FILE "01. The Muffs - Kids In America.wav" WAVE TRACK 01 AUDIO TITLE "Kids In America" PERFORMER "The Muffs" INDEX 01 00:00:00 TRACK 02 AUDIO TITLE "Shake Some Action" PERFORMER "Cracker" INDEX 00 03:17:20FILE "02. Cracker - Shake Some Action.wav" WAVE INDEX 01 00:00:00 TRACK 03 AUDIO TITLE "The Ghost in You" PERFORMER "Counting Crows" INDEX 00 04:24:40FILE "03. Counting Crows - The Ghost in You.wav" WAVE INDEX 01 00:00:00 TRACK 04 AUDIO TITLE "Here (Squirmel Mix)" PERFORMER "Luscious Jackson" INDEX 00 03:29:45FILE "04. Luscious Jackson - Here (Squirmel Mix).wav" WAVE INDEX 01 00:00:00 TRACK 05 AUDIO TITLE "All the Young Dudes" PERFORMER "World Party" INDEX 00 03:32:50FILE "05. World Party - All the Young Dudes.wav" WAVE INDEX 01 00:00:00 TRACK 06 AUDIO TITLE "Fake Plastic Trees (Acoustic Version)" PERFORMER "Radiohead" INDEX 00 03:59:45FILE "06. Radiohead - Fake Plastic Trees (Acoustic Version).wav" WAVE INDEX 01 00:00:00 TRACK 07 AUDIO TITLE "Change" PERFORMER "Lightning Seeds" INDEX 00 04:44:60FILE "07. Lightning Seeds - Change.wav" WAVE INDEX 01 00:00:00 TRACK 08 AUDIO TITLE "Need You Around" PERFORMER "Smoking Popes" INDEX 00 04:00:10FILE "08. Smoking Popes - Need You Around.wav" WAVE INDEX 01 00:00:00 TRACK 09 AUDIO TITLE "Mullet Head" PERFORMER "Beastie Boys" INDEX 00 03:40:42FILE "09. Beastie Boys - Mullet Head.wav" WAVE INDEX 01 00:00:00 TRACK 10 AUDIO TITLE "Where'd You Go?" PERFORMER "Mighty Mighty Bosstones" INDEX 00 02:52:15FILE "10. Mighty Mighty Bosstones - Where'd You Go .wav" WAVE INDEX 01 00:00:00 TRACK 11 AUDIO TITLE "Rollin' with My Homies" PERFORMER "Coolio" INDEX 00 03:15:37FILE "11. Coolio - Rollin' with My Homies.wav" WAVE INDEX 01 00:00:00 TRACK 12 AUDIO TITLE "Alright" PERFORMER "Supergrass" INDEX 00 04:04:60FILE "12. Supergrass - Alright.wav" WAVE INDEX 01 00:00:00 TRACK 13 AUDIO TITLE "My Forgotten Favorite" PERFORMER "Velocity Girl" INDEX 00 03:00:00FILE "13. Velocity Girl - My Forgotten Favorite.wav" WAVE INDEX 01 00:00:00 TRACK 14 AUDIO TITLE "Supermodel" PERFORMER "Jill Sobule" INDEX 00 03:47:10FILE "14. Jill Sobule - Supermodel.wav" WAVE INDEX 01 00:00:00


Трекер:  [ 07-Фев-2011 22:00 ]

  

Скачать .torrent

Размер .torrent файла 15 KB


Размер: 351 MB
Хэш (hash) релиза: 82c88af8bdb697ac5d9f1d3e77e65d2be870ae00

Еще никто не оставлял запись к записи скачать торрент Бестолковые Clueless - 1995, FLAC . Будь первым!

!Обратная связь