Скачать порно через торрент Titlicious 3 ВосхиТитьки 3 UnionPeer.org бесплатно онлайн HD качество

Скачать новое порно 2015, 2014 новинки через торрент UnionPeer.org

Порно торрент бесплатно ЮнионПир.орг

Если у вас наблюдаются проблемы со скриншотами, переходом по ссылками, скачиванием торрентов - проблемы в блокировщике рекламы AdBlock. #хорошегоДня!


Статистика раздачи
Размер:  17.4 GB   |    Зарегистрирован:  3 года 10 месяцев   |    .torrent скачан:  197 раз   |   
Раздают:  1  
   
Загрузка...
 
Автор Сообщение

Galfimbul

avatar Galfimbul


Titlicious 3 / ВосхиТитьки 3

Год производства: 2010 г.
Страна: USA
Жанр: Big Boobs Gonzo Naturally Busty
Продолжительность: 02:14:08

Режиссер: Robby D
Студия: Digital Playground

Язык: Английский
В ролях: Bridgette B., Erik Everhard, Jesse Jane, Jessica Jaymes, Kerry Louise, Manuel Ferrara, Sara Stone, Tommy Gunn, Toni Ribas

Описание: Nutritious, delicious Sexy, hot top heavy action are the rules of this wild lust game. Big tits and thick cocks bang it out on a wild ride of salacious sex and mouth watering adventures. These girls know how to please and tease. Cum all over their bouncing mounds of pleasure for a nasty thrill.

Меню: Нет
Тип HD видео: 1080p
Качество видео: BD Remux
Формат видео: MKV
Видео кодек: H.264/AVC
Аудио кодек: AC3
Видео: AVC at 17,6 Mbps 1920 x 1080 (16:9) at 23.976 fps
Аудио: AC3 640 Kbps 6 channels, 48.0 KHz
Общее
Уникальный идентификатор : 178183321889209324468270646817938729244 (0x860CDC099CE97931BA1D1836F123E91C)
Полное имя : F:\TREKER\TEMP\titlicious_3.mkv
Формат : Matroska
Версия формата : Version 2
Размер файла : 17,4 Гбайт
Продолжительность : 2 ч. 14 м.
Режим общего битрейта : Переменный
Общий поток : 18,6 Мбит/сек
Название фильма : titlicious_3
Дата кодирования : UTC 2014-02-07 17:04:59
Программа кодирования : mkvmerge v4.0.0 ('The Stars were mine') сборка от Jun 6 2010 16:18:42
Библиотека кодирования : libebml v1.0.0 + libmatroska v1.0.0
Attachment : Yes

Видео
Идентификатор : 1
Формат : AVC
Формат/Информация : Advanced Video Codec
Профиль формата : High@L4.1
Параметр CABAC формата : Да
Параметр ReFrames формата : 4 кадра
Идентификатор кодека : V_MPEG4/ISO/AVC
Продолжительность : 2 ч. 14 м.
Вид битрейта : Переменный
Битрейт : 17,6 Мбит/сек
Максимальный битрейт : 28,0 Мбит/сек
Ширина : 1920 пикселей
Высота : 1080 пикселей
Соотношение сторон : 16:9
Режим частоты кадров : Постоянный
Частота кадров : 23,976 кадра/сек
Стандарт вещания : NTSC
Цветовое пространство : YUV
Субдискретизация насыщенности : 4:2:0
Битовая глубина : 8 бит
Тип развёртки : Прогрессивная
Бит/(Пиксели*Кадры) : 0.353
Размер потока : 16,5 Гбайт (95%)
Заголовок : titlicious_3
Язык : English
Default : Нет
Forced : Нет
Основные цвета : BT.709
Характеристики трансфера : BT.709
Коэффициенты матрицы : BT.709

Аудио
Идентификатор : 2
Формат : AC-3
Формат/Информация : Audio Coding 3
Расширение режима : CM (complete main)
Параметр Endianness формата : Big
Идентификатор кодека : A_AC3
Продолжительность : 2 ч. 14 м.
Вид битрейта : Постоянный
Битрейт : 640 Кбит/сек
Каналы : 6 каналов
Расположение каналов : Front: L C R, Side: L R, LFE
Частота : 48,0 КГц
Битовая глубина : 16 бит
Метод сжатия : С потерями
Размер потока : 614 Мбайт (3%)
Заголовок : AC3 640 Kbps 6 channels, 48.0 KHz
Язык : English
Default : Нет
Forced : Нет

Меню
00:00:00.000 : en:
00:11:00.000 : en:
00:22:00.000 : en:
00:33:00.000 : en:
00:44:00.000 : en:
00:55:00.000 : en:
01:06:00.000 : en:
01:17:00.000 : en:
01:28:00.000 : en:
01:39:00.000 : en:
01:50:00.000 : en:
02:01:00.000 : en:
02:12:00.000 : en:


Трекер:  [ 07-Фев-2014 20:36 ]

  

Скачать .torrent

Размер .torrent файла 44 KB


Размер: 17.4 GB
Хэш (hash) релиза: 52a8a284b683f1ab8d8a91a8a8ecd694a54fd9b0

Торренты, похожие на Titlicious 3 ВосхиТитьки 3 скачать торрент

Форум Название Автор Размер S L Добавлен
Порно фильмы без сюжета ·· Titlicious 3 / ВосхиТитьки 3 (Robby D, Digital Playground ) [2010 г.,Big Boobs Gonzo Naturally Busty,1080p ,BluRay] ( Bridgette B., Jesse Jane, Jessica Jaymes, Kerry Louise, Manuel Ferrara, Sara Stone ) Release Date: 4/12/2011 Galfimbul 2275233393921.19 GB 0 0 1309562721

02:25

2-Июл-11

Еще никто не оставлял запись к записи скачать торрент Titlicious 3 ВосхиТитьки 3 . Будь первым!

!Обратная связь