Скачать через торрент Церемония открытия XXII зимних Олимпийских игр в Сочи Первый Канал Фильм бесплатно в хорошем качестве torrent

Скачивайте на UnionPeer.org фильмы через торрент без регистрации. Новинки кино в хорошем качестве через торрент. На UnionPeer.org можно скачать через торрент фильмы 2014 и 2015 годов. Самые новые фильмы.

Скачать торрент Церемония открытия XXII зимних Олимпийских игр в Сочи Первый Канал бесплатно через .torrent фильм мультфильм сериал

Если у вас наблюдаются проблемы со скриншотами, переходом по ссылками, скачиванием торрентов - проблемы в блокировщике рекламы AdBlock. #хорошегоДня!


Статистика раздачи
Размер:  2.12 GB   |    Зарегистрирован:  3 года 10 месяцев   |    .torrent скачан:  83 раза   |   
Раздают:  1  
   
Загрузка...
 
Автор Сообщение

Galfimbul

avatar Galfimbul


Церемония открытия XXII зимних Олимпийских игр в Сочи

Комментарий: Профессиональный
Язык комментариев: Русский (Анатолий Максимов и Кирилл Набутов)
Продолжительность: 02:36:43
Описание: Торжественная Церемония открытия XXII зимних Олимпийских игр 2014 в Сочи.
Автор рипа: sanchez2011
Качество: SATRip
Формат: AVI
Видео кодек: XviD
Аудио кодек: MP3
Видео: MPEG-4 Visual (H263) 720x400 (16:9) 25.00fps 1800kbps
Аудио: MPEG Audio Layer 3 48000Hz stereo 128kbps
GeneralComplete name : E:\Олимпиада 2014\Церемония открытия XXII зимних Олимпийских игр в Сочи Первый Канал SATRip XviD.aviFormat : AVIFormat/Info : Audio Video InterleaveFormat profile : OpenDMLFile size : 2.12 GiBDuration : 2h 36mnOverall bit rate : 1 935 KbpsDirector : sanchez2011 (rutracker.org)Writing application : VirtualDubMod 1.5.10.2 (build 2540/release)Writing library : VirtualDubMod build 2540/release

VideoID : 0Format : MPEG-4 VisualFormat profile : Advanced Simple@L5Format settings, BVOP : 2Format settings, QPel : NoFormat settings, GMC : No warppointsFormat settings, Matrix : Default (H.263)Codec ID : XVIDCodec ID/Hint : XviDDuration : 2h 36mnBit rate : 1 794 KbpsWidth : 720 pixelsHeight : 400 pixelsDisplay aspect ratio : 16:9Frame rate : 25.000 fpsColor space : YUVChroma subsampling : 4:2:0Bit depth : 8 bitsScan type : ProgressiveCompression mode : LossyBits/(Pixel*Frame) : 0.249Stream size : 1.96 GiB (93%)Writing library : XviD 64

AudioID : 1Format : MPEG AudioFormat version : Version 1Format profile : Layer 3Mode : Joint stereoMode extension : MS StereoCodec ID : 55Codec ID/Hint : MP3Duration : 2h 36mnBit rate mode : ConstantBit rate : 128 KbpsChannel(s) : 2 channelsSampling rate : 48.0 KHzCompression mode : LossyStream size : 143 MiB (7%)Alignment : Aligned on interleavesInterleave, duration : 40 ms (1.00 video frame)Interleave, preload duration : 504 msWriting library : LAME3.100


Трекер:  [ 07-Фев-2014 22:47 ]

  

Скачать .torrent

Размер .torrent файла 11 KB


Размер: 2.12 GB
Хэш (hash) релиза: 446fdf3d0303422f475b0f1b8401b744ffd707f3
Подписка на обновления:

Торренты, похожие на Церемония открытия XXII зимних Олимпийских игр в Сочи Первый Канал скачать торрент

Форум Название Автор Размер S L Добавлен
Зимние Олимпийские игры в Сочи 2014 ·· XXII Зимние Олимпийские Игры 2014 / Церемония открытия в Сочи / Первый канал [07.02.2014, SD 576р, H.264, RU, IPTV] Galfimbul 18327792881.71 GB 0 0 1391845002

10:36

8-Фев-14

Еще никто не оставлял запись к записи скачать торрент Церемония открытия XXII зимних Олимпийских игр в Сочи Первый Канал . Будь первым!

!Обратная связь