Скачать через торрент Летопись войн острова Лодосс бесплатно Аниме Все серии на русском torrent

Если у вас наблюдаются проблемы со скриншотами, переходом по ссылками, скачиванием торрентов - проблемы в блокировщике рекламы AdBlock. #хорошегоДня!


Статистика раздачи
Размер:  11.84 GB   |    Зарегистрирован:  3 года 10 месяцев   |    .torrent скачан:  36 раз   |   
Раздают:  1  
   
Загрузка...
 
Автор Сообщение

Galfimbul

avatar Galfimbul



Год выпуска: 1990
Страна: Япония
Жанр: фэнтези, драма
Продолжительность: 13 эп. по 25 мин.
Выпуск: c 30.06.1990 по 23.11.1991
Перевод:

русские субтитры от Кампай-клуб
переводчик: Вадим Авдюнин, редактор: Андрей Илюхин
Озвучка:

одноголосая (муж.) от Digital Force
Режиссер: Нагаока Акинори
Студия: Madhouse Studios
Описание:
Фентезийный мир, построенный согласно канонам D&D (сюжет аниме произошёл от сценария ролевой игры по этой схеме), только имена богов другие. Когда-то в результате поединка светлых богов с тёмными, в котором они погибли все, кроме богини созидания Марфы и богини разрушения Карвис, от континента был отколот Лодосс-- проклятый остров, как его назвали. Обстановка там была довольно напряжённая: гоблины, враждующие друг с другом племена... Но всё стало ещё хуже, когда на Лодосс хлынули войска гоблинов, тёмных эльфов и прочих монстров с тёмного острова Мармо, под предводительством императора Бельта, вооружённого демоническим мечом. Его армиями правит талантливый и бесстрашный Ашрам, рыцарь в чёрных доспехах, ему помогает таинственная, но очень могущественная колдунья Карла. Сюжет крутится вокруг молодого рыцаря, Парна, который покидает свою деревню с намерением узнать причину агрессивности местных гоблинов и стать настоящим рыцарем, подобно своему отцу. Понятно, что скоро у него появляются приятели-- гном Гим (воин), эльфийка Дидлит (войн/друид), Слейн (маг), Это (священник), Вудчак (вор). Такая вот сплочённая команда в лучших традициях фентези. Понятно, Парну с остальными придётся пройти сквозь множество испытаний, повзрослеть, познать вкус битвы, в конце концов, встретиться с Ашрамом-- главным антигероем, ради которого я и взялась за просмотр этого аниме....
Информационные ссылки: AniDB || World Art || MAL
Качество: BDRip
Энкод: Winter - RG Pantheon
Тип видео: без хардсаба, без линковки
Формат: mkv
Видео: x264 (Hi10p), 960x720, ~6000 Kbps, 23.976 fps
Аудио JAP: Vorbis, 48000Hz, ~256 Kbps, 2ch
Аудио RUS: AC3, 48000Hz, ~192 Kbps, 2ch (внешними файлами)
01. Prologue to the Legend
02. Blazing Departure
03. The Black Knight
04. The Grey Witch
05. The Desert King
06. The Sword of the Dark Emperor
07. The War of Heroes
08. Requiem for Warriors
09. The Scepter of Domination
10. The Demon Dragon
11. The Wizard`s Ambition
12. Final Battle! Marmo the Dark Island
13. Lodoss - The Burning Continent
Общее
Уникальный идентификатор : 253705298076002761213793710678763136071 (0xBEDDDCF197F87008A759F04DE7F06447)
Полное имя : Z:\Anime\720p\Lodoss-tou Senki [BD] [720p]\[Winter] Lodoss-tou Senki 01 [BDrip 960x720 x264 Vorbis].mkv
Формат : Matroska
Версия формата : Version 2
Размер файла : 1,09 Гбайт
Продолжительность : 24 м.
Режим общего битрейта : Переменный
Общий поток : 6386 Кбит/сек
Дата кодирования : UTC 2013-12-05 15:01:25
Программа кодирования : mkvmerge v2.9.8 (''C''est le bon'') built on Aug 13 2009 12:49:06
Библиотека кодирования : libebml v0.7.7 + libmatroska v0.8.1

Видео
Идентификатор : 1
Формат : AVC
Формат/Информация : Advanced Video Codec
Профиль формата : High 10@L4.1
Параметр CABAC формата : Да
Параметр ReFrames формата : 9 кадров
Идентификатор кодека : V_MPEG4/ISO/AVC
Продолжительность : 24 м.
Битрейт : 6003 Кбит/сек
Ширина : 960 пикселей
Высота : 720 пикселей
Соотношение сторон : 4:3
Режим частоты кадров : Постоянный
Частота кадров : 23,976 кадра/сек
Цветовое пространство : YUV
Субдискретизация насыщенности : 4:2:0
Битовая глубина : 10 бит
Тип развёртки : Прогрессивная
Бит/(Пиксели*Кадры) : 0.362
Размер потока : 1,03 Гбайт (94%)
Библиотека кодирования : x264 core 132 r2309 3b1f1f7
Настройки программы : cabac=1 / ref=9 / deblock=1:-2:-2 / analyse=0x3:0x133 / me=umh / subme=9 / psy=1 / psy_rd=0.90:0.00 / mixed_ref=1 / me_range=24 / chroma_me=1 / trellis=2 / 8x8dct=1 / cqm=0 / deadzone=21,11 / fast_pskip=1 / chroma_qp_offset=-2 / threads=6 / lookahead_threads=1 / sliced_threads=0 / nr=0 / decimate=0 / interlaced=0 / bluray_compat=0 / constrained_intra=0 / bframes=8 / b_pyramid=2 / b_adapt=2 / b_bias=0 / direct=1 / weightb=1 / open_gop=0 / weightp=2 / keyint=250 / keyint_min=23 / scenecut=40 / intra_refresh=0 / rc=crf / mbtree=0 / crf=17.2 / qcomp=0.70 / qpmin=9 / qpmax=40 / qpstep=4 / ip_ratio=1.40 / pb_ratio=1.30 / aq=1:0.90
Default : Нет
Forced : Нет

Аудио
Идентификатор : 2
Формат : Vorbis
Параметр Floor формата : 1
Идентификатор кодека : A_VORBIS
Продолжительность : 24 м.
Вид битрейта : Переменный
Битрейт : 256 Кбит/сек
Каналы : 2 канала
Частота : 48,0 КГц
Метод сжатия : С потерями
Размер потока : 44,9 Мбайт (4%)
Библиотека кодирования : libVorbis (Schaufenugget) (20101101 (Schaufenugget))
Язык : Japanese
Default : Да
Forced : Нет



Трекер:  [ 09-Фев-2014 11:42 ]

  

Скачать .torrent

Размер .torrent файла 63 KB


Размер: 11.84 GB
Хэш (hash) релиза: 6017383d9bd05edbba1af523cba39972dc787ecf
Подписка на обновления:

Торренты, похожие на Летопись войн острова Лодосс скачать торрент

Форум Название Автор Размер S L Добавлен
Аниме | Rips ·· Летопись войн острова Лодосс / Lodoss Tou Senki / Record of Lodoss War [OVA] [1-13] [Без хардсаба] [RUS(int), JAP, SUB] [1990 г., фэнтези, приключения, драма, BDRip] Galfimbul 73976199906.89 GB 0 0 1391935425

11:43

9-Фев-14

Аниме | HD Rips ·· Летопись войн острова Лодосс (ОВА) / Lodoss-tou Senki / Record of Lodoss War (Нагаока Акинори) [OVA] [13 из 13] [без хардсаба] [RUS(ext), JAP+SUB] [1990 г., фэнтези, драма, BDRip] [720p] Galfimbul 1270330318311.83 GB 0 0 1391935200

11:40

9-Фев-14

Аниме | HD Rips ·· Летопись войн острова Лодосс (ОВА) / Lodoss-tou Senki / Record of Lodoss War (Нагаока Акинори) [OVA] [1 из 13] [без хардсаба] [RUS(ext), JAP+SUB] [1990 г., фэнтези, драма, BDRip] [720p] Polarnik 12101224981.13 GB 0 0 1386276591

23:49

5-Дек-13

Аниме | DVD ·· Летопись войн острова Лодосс TV / Record of Lodoss War: Legend of the Heroic Knight (Такамото Нобухиро / Takamoto Nobuhiro) [RUS,JAP,ENG+SUB RUS,ENG] (TV 27 из 27) [1998 г., приключения, драма, фэнтези, 9xDVD5] Galfimbul 2938588774427.37 GB 0 0 1354601940

09:19

4-Дек-12

Аниме | DVD ·· Летопись войн острова Лодосс / Record of Lodoss War / Lodoss Tou Senki [OVA] [1-13 из 13] [JAP, SUB] [1990 г., фэнтези, приключения, драма] [5 x DVD5 + 1 x DVD9] Galfimbul 2447674368022.8 GB 0 0 1310319111

20:31

10-Июл-11

Еще никто не оставлял запись к записи скачать торрент Летопись войн острова Лодосс . Будь первым!

!Обратная связь