Скачать через торрент музыку A Disney Spectacular бесплатно без регистрации torrent

Если у вас наблюдаются проблемы со скриншотами, переходом по ссылками, скачиванием торрентов - проблемы в блокировщике рекламы AdBlock. #хорошегоДня!


Статистика раздачи
Размер:  316 MB   |    Зарегистрирован:  6 лет 10 месяцев   |    .torrent скачан:  55 раз   |   
Раздают:  1  
   
Загрузка...
 
Автор Сообщение

Комедиант

avatar Комедиант


A Disney Spectacular (Erich Kunzel & Cincinnati Pops Orchestra)

Жанр: Score
Год выпуска диска: 1989
Производитель диска: USA Telarc
Аудио кодек: APE
Тип рипа: image+.cue
Битрейт аудио: lossless
Продолжительность: 68:10
Трэклист:
1. When You Wish Upon A Star 2:35
2. It's A Small World 3:23
3. Alice In Wonderland 4:42
4. March of the Cards 1:58
5. Mary Poppins 8:36
6. Cinderella 8:20
7. The Jungle Book 7:00
8. Who's Afraid of the Big Bad Wolf? 1:36
9. Snow White and the Seven Dwarfs 12:14
10. Mickey Mouse March 1:14
11. Baroque Hoedown (Theme from Disney's Main Street Electrical Parade) 2:25
12. Disney Fantasy Medley: Zip-A-Dee-Doo-Dah / The Wonderful Thing About Tiggers / Winnie the Pooh / Bel 13:41
Exact Audio Copy V0.99 prebeta 4 from 23. January 2008 

Отчёт EAC об извлечении, выполненном 12. сентября 2009, 1:30

Cincinnati Pops Orch / Disney Spectacular

Дисковод: Optiarc DVD RW AD-5170A Adapter: 1 ID: 0

Режим чтения : Достоверность
Использование точного потока : Да
Отключение кэша аудио : Да
Использование указателей C2 : Нет

Коррекция смещения при чтении : 48
Способность читать области Lead-in и Lead-out : Нет
Заполнение пропущенных сэмплов тишиной : Да
Удаление блоков с тишиной в начале и конце : Нет
При вычислениях CRC использовались нулевые сэмплы : Да
Интерфейс : Встроенный Win32-интерфейс для Win NT/2000

Выходной формат : Внутренние WAV-операции
Формат сэмплов : 44.100 Гц; 16 бит; стерео

TOC извлечённого CD

Трек | Старт | Длительность | Начальный сектор | Конечный сектор
---------------------------------------------------------------------
1 | 0:00.00 | 2:36.40 | 0 | 11739
2 | 2:36.40 | 3:25.05 | 11740 | 27119
3 | 6:01.45 | 4:43.62 | 27120 | 48406
4 | 10:45.32 | 1:59.40 | 48407 | 57371
5 | 12:44.72 | 8:37.35 | 57372 | 96181
6 | 21:22.32 | 8:21.40 | 96182 | 133796
7 | 29:43.72 | 7:02.05 | 133797 | 165451
8 | 36:46.02 | 1:38.20 | 165452 | 172821
9 | 38:24.22 | 12:16.03 | 172822 | 228024
10 | 50:40.25 | 1:15.72 | 228025 | 233721
11 | 51:56.22 | 2:26.35 | 233722 | 244706
12 | 54:22.57 | 13:40.48 | 244707 | 306254

Характеристики диапазона извлечения и сообщения об ошибках

Выбранный диапазон

Имя файла D:\TORRENT\TELARC - A Disney Spectacular\Cincinnati Pops Orch - Disney Spectacular.wav

Пиковый уровень 100.0 %
Качество диапазона 99.9 %
CRC копии B120AF29
Копирование... OK

Ошибок не произошло

AccurateRip: сводка

Трек 1 нет в базе данных
Трек 2 нет в базе данных
Трек 3 нет в базе данных
Трек 4 нет в базе данных
Трек 5 нет в базе данных
Трек 6 нет в базе данных
Трек 7 нет в базе данных
Трек 8 нет в базе данных
Трек 9 нет в базе данных
Трек 10 нет в базе данных
Трек 11 нет в базе данных
Трек 12 нет в базе данных

Ни одного трека нет в базе AccurateRip

Конец отчёта


Трекер:  [ 08-Фев-2011 12:22 ]

  

Скачать .torrent

Размер .torrent файла 13 KB


Размер: 316 MB
Хэш (hash) релиза: 2af6216d5370e2aa04a8e31eeefb0f10c86d07ad

Еще никто не оставлял запись к записи скачать торрент A Disney Spectacular . Будь первым!

!Обратная связь