Скачать через торрент XXII Зимние Олимпийские Игры 2014. Горные лыжи. Женщины. Суперкомбинация. Слалом. НТВ+ Фильм бесплатно в хорошем качестве torrent

Скачивайте на UnionPeer.org фильмы через торрент без регистрации. Новинки кино в хорошем качестве через торрент. На UnionPeer.org можно скачать через торрент фильмы 2014 и 2015 годов. Самые новые фильмы.

Скачать торрент XXII Зимние Олимпийские Игры 2014. Горные лыжи. Женщины. Суперкомбинация. Слалом. НТВ+ бесплатно через .torrent фильм мультфильм сериал

Если у вас наблюдаются проблемы со скриншотами, переходом по ссылками, скачиванием торрентов - проблемы в блокировщике рекламы AdBlock. #хорошегоДня!


Статистика раздачи
Размер:  6.97 GB   |    Зарегистрирован:  3 года 10 месяцев   |    .torrent скачан:  37 раз   |   
Раздают:  1  
   
Загрузка...
 
Автор Сообщение

Galfimbul

avatar Galfimbul


XXII Зимние Олимпийские Игры 2014. Горные лыжи. Женщины. Суперкомбинация. НТВ+

Вид спорта: Горные лыжи
Дата/Год выпуска: 10.02.14
Язык комментариев: русский (Елизавета Кожевникова)

Автор записи: SashaR.

Качество: DVB-S2 Remux
Формат видео: TS
Видео: AVC, 1920x1080, 16:9, 11.8 Mbps, 25 fps
Аудио: MP2, 192 kbps, 48 kHz, 2 channels
Аудио: AC-3, 448 kbps, 48 kHz, 5 channels
J:\Олимпиада\Горные лыжи. Женщины. Суперкомбинация (HD Спорт)\Горные лыжи. Женщины. Суперкомбинация. Слалом.ts
General #6
ID : 6 (0x6)
Complete name : J:\Олимпиада\Горные лыжи. Женщины. Суперкомбинация (HD Спорт)\Горные лыжи. Женщины. Суперкомбинация. Слалом.ts
Format : MPEG-TS
File size : 6.97 GiB
Duration : 1h 16mn
Overall bit rate mode : Variable
Overall bit rate : 13.1 Mbps
Video #322
ID : 322 (0x142)
Menu ID : 12102 (0x2F46)
Format : AVC
Format/Info : Advanced Video Codec
Format profile : High@L4.0
Format settings, CABAC : Yes
Format settings, ReFrames : 3 frames
Format settings, GOP : M=4, N=28
Codec ID : 27
Duration : 1h 16mn
Bit rate : 11.8 Mbps
Width : 1 920 pixels
Height : 1 080 pixels
Display aspect ratio : 16:9
Frame rate : 25.000 fps
Standard : Component
Color space : YUV
Chroma subsampling : 4:2:0
Bit depth : 8 bits
Scan type : Interlaced
Scan order : Top Field First
Bits/(Pixel*Frame) : 0.227
Stream size : 6.28 GiB (90%)
Color primaries : BT.709
Transfer characteristics : BT.709
Matrix coefficients : BT.709
Audio #402
ID : 402 (0x192)
Menu ID : 12102 (0x2F46)
Format : AC-3
Format/Info : Audio Coding 3
Mode extension : CM (complete main)
Format settings, Endianness : Big
Codec ID : 6
Duration : 1h 16mn
Bit rate mode : Constant
Bit rate : 448 Kbps
Channel count : 5 channels
Channel positions : Front: L C R, Side: L R
Sampling rate : 48.0 KHz
Bit depth : 16 bits
Compression mode : Lossy
Delay relative to video : 134ms
Stream size : 245 MiB (3%)
Language : Russian
Language, more info : Clean effects
Audio #422
ID : 422 (0x1A6)
Menu ID : 12102 (0x2F46)
Format : MPEG Audio
Format version : Version 1
Format profile : Layer 2
Codec ID : 4
Duration : 1h 16mn
Bit rate mode : Constant
Bit rate : 192 Kbps
Channel count : 2 channels
Sampling rate : 48.0 KHz
Compression mode : Lossy
Delay relative to video : 88ms
Stream size : 105 MiB (1%)
Language : Russian
Language, more info : Clean effects
Слалом - 01:16:30


Трекер:  [ 10-Фев-2014 16:58 ]

  

Скачать .torrent

Размер .torrent файла 140 KB


Размер: 6.97 GB
Хэш (hash) релиза: b9e5866e422542f436feae5888fb65cd0a8e4217
Подписка на обновления:

Торренты, похожие на XXII Зимние Олимпийские Игры 2014. Горные лыжи. Женщины. Суперкомбинация. Слалом. НТВ+ скачать торрент

Форум Название Автор Размер S L Добавлен
Зимние Олимпийские игры в Сочи 2014 ·· XXII Зимние Олимпийские Игры 2014 / Горные лыжи / Женщины / Суперкомбинация / Скоростной спуск + Слалом / НТВ+ [10.02.2014, Горные лыжи, MPEG, DVB] Galfimbul 48855982084.55 GB 0 0 1392156343

01:05

12-Фев-14

Еще никто не оставлял запись к записи скачать торрент XXII Зимние Олимпийские Игры 2014. Горные лыжи. Женщины. Суперкомбинация. Слалом. НТВ+ . Будь первым!

!Обратная связь