Скачать через торрент XXII Зимние Олимпийские Игры 2014. Биатлон. Женщины. Гонка преследования 10 км Россия HD Фильм бесплатно в хорошем качестве torrent

Скачивайте на UnionPeer.org фильмы через торрент без регистрации. Новинки кино в хорошем качестве через торрент. На UnionPeer.org можно скачать через торрент фильмы 2014 и 2015 годов. Самые новые фильмы.

Скачать торрент XXII Зимние Олимпийские Игры 2014. Биатлон. Женщины. Гонка преследования 10 км Россия HD бесплатно через .torrent фильм мультфильм сериал

Если у вас наблюдаются проблемы со скриншотами, переходом по ссылками, скачиванием торрентов - проблемы в блокировщике рекламы AdBlock. #хорошегоДня!


Статистика раздачи
Размер:  681 MB   |    Зарегистрирован:  3 года 10 месяцев   |    .torrent скачан:  37 раз   |   
Раздают:  1  
   
Загрузка...
 
Автор Сообщение

Galfimbul

avatar Galfimbul


XXII Зимние Олимпийские Игры 2014. Биатлон. Женщины. Гонка преследования 10 км

Вид спорта: Биатлон
Комментарий: Профессиональный
Язык комментариев: Русский (Дмитрий Губерниев)
Описание: XXII Зимние Олимпийские Игры 2014. Биатлон. Женщины. Гонка преследования 10 км. Присутствует цветочная церемония.

Автор рипа: sanchez2011

Качество: HDTVRip
Формат: AVI
Видео кодек: XviD
Аудио кодек: MP3
Видео: MPEG4 Visual (H263) 704x400 (16:9) 25fps 1700kbps
Аудио: MPEG Audio Layer 3 48000Hz stereo 160kbps
Все результаты соревнований

Продолжительность: 00:50:56
GeneralComplete name : E:\Олимпиада 2014\XXII Зимние Олимпийские Игры 2014. 11.02.2014 Биатлон. Женщины. Гонка преследования 10 км.aviFormat : AVIFormat/Info : Audio Video InterleaveFile size : 681 MiBDuration : 50mn 56sOverall bit rate : 1 869 KbpsWriting application : VirtualDubMod 1.5.10.2 (build 2540/release)Writing library : VirtualDubMod build 2540/release

VideoID : 0Format : MPEG-4 VisualFormat profile : Advanced Simple@L5Format settings, BVOP : 2Format settings, QPel : NoFormat settings, GMC : No warppointsFormat settings, Matrix : Default (H.263)Codec ID : XVIDCodec ID/Hint : XviDDuration : 50mn 56sBit rate : 1 699 KbpsWidth : 704 pixelsHeight : 400 pixelsDisplay aspect ratio : 16:9Frame rate : 25.000 fpsColor space : YUVChroma subsampling : 4:2:0Bit depth : 8 bitsScan type : ProgressiveCompression mode : LossyBits/(Pixel*Frame) : 0.241Stream size : 619 MiB (91%)Writing library : XviD 64

AudioID : 1Format : MPEG AudioFormat version : Version 1Format profile : Layer 3Mode : Joint stereoMode extension : MS StereoCodec ID : 55Codec ID/Hint : MP3Duration : 50mn 55sBit rate mode : ConstantBit rate : 160 KbpsChannel(s) : 2 channelsSampling rate : 48.0 KHzCompression mode : LossyStream size : 58.3 MiB (9%)Alignment : Aligned on interleavesInterleave, duration : 40 ms (1.00 video frame)Interleave, preload duration : 504 msWriting library : LAME3.100


Трекер:  [ 11-Фев-2014 20:27 ]

  

Скачать .torrent

Размер .torrent файла 14 KB


Размер: 681 MB
Хэш (hash) релиза: 6368f6f37a3bb8e0d7ead1f562a0b743ca58abe2
Подписка на обновления:

Торренты, похожие на XXII Зимние Олимпийские Игры 2014. Биатлон. Женщины. Гонка преследования 10 км Россия HD скачать торрент

Форум Название Автор Размер S L Добавлен
Зимние Олимпийские игры в Сочи 2014 ·· XXII Зимние Олимпийские Игры 2014. Биатлон. Женщины. Гонка преследования 10 км / Россия HD [11.02.2014, Биатлон, HDTV, 1080i] Galfimbul 35697259523.32 GB 0 0 1392139674

20:27

11-Фев-14

Еще никто не оставлял запись к записи скачать торрент XXII Зимние Олимпийские Игры 2014. Биатлон. Женщины. Гонка преследования 10 км Россия HD . Будь первым!

!Обратная связь