Скачать через торрент XXII Зимние Олимпийские Игры 2014. Санный спорт. Женщины. 4-я попытка Россия HD Фильм бесплатно в хорошем качестве torrent

Скачивайте на UnionPeer.org фильмы через торрент без регистрации. Новинки кино в хорошем качестве через торрент. На UnionPeer.org можно скачать через торрент фильмы 2014 и 2015 годов. Самые новые фильмы.

Скачать торрент XXII Зимние Олимпийские Игры 2014. Санный спорт. Женщины. 4-я попытка Россия HD бесплатно через .torrent фильм мультфильм сериал

Если у вас наблюдаются проблемы со скриншотами, переходом по ссылками, скачиванием торрентов - проблемы в блокировщике рекламы AdBlock. #хорошегоДня!


Статистика раздачи
Размер:  2.83 GB   |    Зарегистрирован:  3 года 10 месяцев   |    .torrent скачан:  32 раза   |   
Раздают:  1  
   
Загрузка...
 
Автор Сообщение

Galfimbul

avatar Galfimbul


XXII Зимние Олимпийские Игры 2014. Санный спорт. Женщины. 4-я попытка

Вид спорта: Санный спорт
Комментарий: Профессиональный
Язык комментариев: Русский (Александр Ткачев)
Описание: XXII Зимние Олимпийские Игры 2014. Санный спорт. Женщины. 4-я попытка. Вторая часть видимо.

Автор рипа: sanchez2011

Качество: HDTV
Формат: MPEG-TS
Видео кодек: AVC
Аудио кодек: MP2
Видео: MPEG4 Video (H264) 1920x1080 10.8Mbps 25fps
Аудио: MPEG Audio 48000Hz stereo 224kbps
Все результаты соревнований

Продолжительность: 00:34:48
GeneralID : 1 (0x1)Complete name : E:\Олимпиада 2014\XXII Зимние Олимпийские Игры 2014. 11.02.2014 Санный спорт. Женщины. 4-я попытка.tsFormat : MPEG-TSFile size : 2.83 GiBDuration : 34mn 48sOverall bit rate mode : VariableOverall bit rate : 11.6 Mbps

VideoID : 1901 (0x76D)Menu ID : 1 (0x1)Format : AVCFormat/Info : Advanced Video CodecFormat profile : High@L4.0Format settings, CABAC : YesFormat settings, ReFrames : 3 framesFormat settings, GOP : M=4, N=32Codec ID : 27Duration : 34mn 48sBit rate : 10.8 MbpsWidth : 1 920 pixelsHeight : 1 080 pixelsDisplay aspect ratio : 16:9Frame rate : 25.000 fpsStandard : ComponentColor space : YUVChroma subsampling : 4:2:0Bit depth : 8 bitsScan type : InterlacedScan order : Top Field FirstBits/(Pixel*Frame) : 0.209Stream size : 2.63 GiB (93%)Color primaries : BT.709Transfer characteristics : BT.709Matrix coefficients : BT.709

AudioID : 2901 (0xB55)Menu ID : 1 (0x1)Format : MPEG AudioFormat version : Version 1Format profile : Layer 2Codec ID : 3Duration : 34mn 48sBit rate mode : ConstantBit rate : 224 KbpsChannel(s) : 2 channelsSampling rate : 48.0 KHzCompression mode : LossyStream size : 55.8 MiB (2%)Language : Russian


Трекер:  [ 11-Фев-2014 21:33 ]

  

Скачать .torrent

Размер .torrent файла 14 KB


Размер: 2.83 GB
Хэш (hash) релиза: f37eb14dc35019918c9b6ec17a355fd4df351098
Подписка на обновления:

Еще никто не оставлял запись к записи скачать торрент XXII Зимние Олимпийские Игры 2014. Санный спорт. Женщины. 4-я попытка Россия HD . Будь первым!

!Обратная связь