Скачать через торрент XXII Зимние Олимпийские Игры 2014 Прыжки с трамплина Фильм бесплатно в хорошем качестве torrent

Скачивайте на UnionPeer.org фильмы через торрент без регистрации. Новинки кино в хорошем качестве через торрент. На UnionPeer.org можно скачать через торрент фильмы 2014 и 2015 годов. Самые новые фильмы.

Скачать торрент XXII Зимние Олимпийские Игры 2014 Прыжки с трамплина бесплатно через .torrent фильм мультфильм сериал

Если у вас наблюдаются проблемы со скриншотами, переходом по ссылками, скачиванием торрентов - проблемы в блокировщике рекламы AdBlock. #хорошегоДня!


Статистика раздачи
Размер:  3.07 GB   |    Зарегистрирован:  3 года 10 месяцев   |    .torrent скачан:  37 раз   |   
Раздают:  1  
   
Загрузка...
 
Автор Сообщение

Galfimbul

avatar Galfimbul


XXII Зимние Олимпийские Игры 2014 / Прыжки с трамплина / Мужчины / Трамплин К-95 / Финал

Вид спорта: Прыжки с трамплина
Дата/Год выпуска: 09.02.14
Язык комментариев: русский

Автор записи: SashaR.

Качество: DVB-S2 Remux
Формат видео: TS
Видео: AVC, 1920x1080, 16:9, 12.2 Mbps, 25 fps
Аудио: MP2, 192 kbps, 48 kHz, 2 channels
J:\Олимпиада\Прыжки с трамплина. Мужчины. Трамплин К-95. Финал (Спорт 1 HD).ts
General #6
ID : 6 (0x6)
Complete name : J:\Олимпиада\Прыжки с трамплина. Мужчины. Трамплин К-95. Финал (Спорт 1 HD).ts
Format : MPEG-TS
File size : 3.07 GiB
Duration : 33mn 44s
Overall bit rate mode : Variable
Overall bit rate : 13.0 Mbps
Video #303
ID : 303 (0x12F)
Menu ID : 20103 (0x4E87)
Format : AVC
Format/Info : Advanced Video Codec
Format profile : High@L4.0
Format settings, CABAC : Yes
Format settings, ReFrames : 3 frames
Codec ID : 27
Duration : 33mn 44s
Bit rate : 12.2 Mbps
Width : 1 920 pixels
Height : 1 080 pixels
Display aspect ratio : 16:9
Frame rate : 25.000 fps
Standard : Component
Color space : YUV
Chroma subsampling : 4:2:0
Bit depth : 8 bits
Scan type : Interlaced
Scan order : Top Field First
Bits/(Pixel*Frame) : 0.235
Stream size : 2.87 GiB (94%)
Color primaries : BT.709
Transfer characteristics : BT.709
Matrix coefficients : BT.709
Audio #403
ID : 403 (0x193)
Menu ID : 20103 (0x4E87)
Format : MPEG Audio
Format version : Version 1
Format profile : Layer 2
Codec ID : 4
Duration : 33mn 44s
Bit rate mode : Constant
Bit rate : 192 Kbps
Channel count : 2 channels
Sampling rate : 48.0 KHz
Compression mode : Lossy
Delay relative to video : 104ms
Stream size : 46.3 MiB (1%)
Language : Russian
00:33:44


Трекер:  [ 12-Фев-2014 09:56 ]

  

Скачать .torrent

Размер .torrent файла 123 KB


Размер: 3.07 GB
Хэш (hash) релиза: 84f5652e7ef25887910ad00ce5c509d1a0eb54f9
Подписка на обновления:

Еще никто не оставлял запись к записи скачать торрент XXII Зимние Олимпийские Игры 2014 Прыжки с трамплина . Будь первым!

!Обратная связь