Скачать через торрент XXII Зимние Олимпийские Игры 2014. Скелетон. Женщины. 1-я и 2-я попытки НТВ+ Фильм бесплатно в хорошем качестве torrent

Скачивайте на UnionPeer.org фильмы через торрент без регистрации. Новинки кино в хорошем качестве через торрент. На UnionPeer.org можно скачать через торрент фильмы 2014 и 2015 годов. Самые новые фильмы.

Скачать торрент XXII Зимние Олимпийские Игры 2014. Скелетон. Женщины. 1-я и 2-я попытки НТВ+ бесплатно через .torrent фильм мультфильм сериал

Если у вас наблюдаются проблемы со скриншотами, переходом по ссылками, скачиванием торрентов - проблемы в блокировщике рекламы AdBlock. #хорошегоДня!


Статистика раздачи
Размер:  12.46 GB   |    Зарегистрирован:  3 года 10 месяцев   |    .torrent скачан:  34 раза   |   
Раздают:  1  
   
Загрузка...
 
Автор Сообщение

Galfimbul

avatar Galfimbul


XXII Зимние Олимпийские Игры 2014. Скелетон. Женщины. 1-я и 2-я попытки / НТВ+

Вид спорта: Скелетон
Дата/Год выпуска: 13.02.14
Язык комментариев: русский

Автор записи: SashaR.

Качество: DVB-S2 Remux
Формат видео: TS
Видео: AVC, 1920x1080, 16:9, 14.3 Mbps, 25 fps
Аудио: MP2, 192 kbps, 48 kHz, 2 channels
Аудио: AC-3, 448 kbps, 48 kHz, 5 channels
J:\Олимпиада\Скелетон. Женщины\Скелетон. 1-я попытка.ts
General #6
ID : 6 (0x6)
Complete name : J:\Олимпиада\Скелетон. Женщины\Скелетон. 1-я попытка.ts
Format : MPEG-TS
File size : 6.24 GiB
Duration : 56mn 50s
Overall bit rate mode : Variable
Overall bit rate : 15.7 Mbps
Video #322
ID : 322 (0x142)
Menu ID : 12102 (0x2F46)
Format : AVC
Format/Info : Advanced Video Codec
Format profile : High@L4.0
Format settings, CABAC : Yes
Format settings, ReFrames : 3 frames
Codec ID : 27
Duration : 56mn 49s
Bit rate : 14.3 Mbps
Width : 1 920 pixels
Height : 1 080 pixels
Display aspect ratio : 16:9
Frame rate : 25.000 fps
Standard : Component
Color space : YUV
Chroma subsampling : 4:2:0
Bit depth : 8 bits
Scan type : Interlaced
Scan order : Top Field First
Bits/(Pixel*Frame) : 0.276
Stream size : 5.67 GiB (91%)
Color primaries : BT.709
Transfer characteristics : BT.709
Matrix coefficients : BT.709
Audio #402
ID : 402 (0x192)
Menu ID : 12102 (0x2F46)
Format : AC-3
Format/Info : Audio Coding 3
Mode extension : CM (complete main)
Format settings, Endianness : Big
Codec ID : 6
Duration : 56mn 50s
Bit rate mode : Constant
Bit rate : 448 Kbps
Channel count : 5 channels
Channel positions : Front: L C R, Side: L R
Sampling rate : 48.0 KHz
Bit depth : 16 bits
Compression mode : Lossy
Delay relative to video : 34ms
Stream size : 182 MiB (3%)
Language : Russian
Language, more info : Clean effects
Audio #422
ID : 422 (0x1A6)
Menu ID : 12102 (0x2F46)
Format : MPEG Audio
Format version : Version 1
Format profile : Layer 2
Codec ID : 4
Duration : 56mn 50s
Bit rate mode : Constant
Bit rate : 192 Kbps
Channel count : 2 channels
Sampling rate : 48.0 KHz
Compression mode : Lossy
Delay relative to video : 21ms
Stream size : 78.1 MiB (1%)
Language : Russian
Language, more info : Clean effects
1-я попытка - 00:56:50
2-я попытка - 00:55:20


Трекер:  [ 13-Фев-2014 19:07 ]

  

Скачать .torrent

Размер .torrent файла 125 KB


Размер: 12.46 GB
Хэш (hash) релиза: 4f3ecfb2a47569580620917063929aef8602fd89
Подписка на обновления:

Торренты, похожие на XXII Зимние Олимпийские Игры 2014. Скелетон. Женщины. 1-я и 2-я попытки НТВ+ скачать торрент

Форум Название Автор Размер S L Добавлен
Зимние Олимпийские игры в Сочи 2014 ·· XXII Зимние Олимпийские Игры 2014. Скелетон. Женщины. 1-я, 2-я и 4-я попытки / НТВ+ [13.02.14, Скелетон, DVB-S2 Remux, 1080i, RU] Galfimbul 1898859408017.68 GB 0 0 1392408344

23:05

14-Фев-14

Еще никто не оставлял запись к записи скачать торрент XXII Зимние Олимпийские Игры 2014. Скелетон. Женщины. 1-я и 2-я попытки НТВ+ . Будь первым!

!Обратная связь