Скачать порно через торрент Oni Chichi: Rebuild Демон отец: Возвращение UnionPeer.org бесплатно онлайн HD качество

Скачать новое порно 2015, 2014 новинки через торрент UnionPeer.org

Порно торрент бесплатно ЮнионПир.орг

Если у вас наблюдаются проблемы со скриншотами, переходом по ссылками, скачиванием торрентов - проблемы в блокировщике рекламы AdBlock. #хорошегоДня!


Статистика раздачи
Размер:  3.07 GB   |    Зарегистрирован:  3 года 10 месяцев   |    .torrent скачан:  269 раз   |   
Раздают:  1  
   
Загрузка...
 
Автор Сообщение

Galfimbul

avatar Galfimbul


Oni Chichi: Rebuild / 鬼父 Rebuild / Демон отец: Возвращение

Год производства: 2013 г.
Жанр: Anal sex, Big tits, Oral sex, Titsjob, Incest, Rape
Серии: ep. 1
Продолжительность: 1х~29 min
Цензура: Есть

Озвучка: Японская (Оригинальная)

Режиссер: Nobitome Youta
Автор оригинала: Blue Gale
Студия: PoRO

Описание RUS: Что бы было если бы в истории кроме папы, дочки и приёмной дочки была бы ещё и мама...

Описание ENG: How would it be if in history except my father, daughter and the adopted daughter would have a mom...

Информационные ссылки: AniDB - MAL - World Art

Качество видео: DVD5
Формат видео: DVD Video
Видео кодек: MPEG2
Аудио кодек: AC3
Видео: 720х480, (16:9), 23,976 кадров/сек, ~ 4948 Кбит/сек, NTSC
Аудио №1: JAP, AC-3, 2 канала, 192 Кбит/сек, 48,0 КГц
Аудио №2: JAP, AC-3, 2 канала, 192 Кбит/сек, 48,0 КГц
Общее
Полное имя : J:\VIDEO_TS\VTS_01_1.VOB
Формат : MPEG-PS
Размер файла : 1024 Мбайт
Продолжительность : 26 м.
Режим общего битрейта : Переменный
Общий поток : 5441 Кбит/сек

Видео
Идентификатор : 224 (0xE0)
Формат : MPEG Video
Версия формата : Version 2
Профиль формата : Main@Main
Параметр BVOP формата : Да
Параметр матрицы формата : Выборочная
Параметр GOP формата : M=3, N=12
Продолжительность : 26 м.
Вид битрейта : Переменный
Битрейт : 4948 Кбит/сек
Максимальный битрейт : 7500 Кбит/сек
Ширина : 720 пикселей
Высота : 480 пикселей
Соотношение сторон : 16:9
Частота кадров : 23,976 кадра/сек
Стандарт вещания : NTSC
Цветовое пространство : YUV
Субдискретизация насыщенности : 4:2:0
Битовая глубина : 8 бит
Тип развёртки : Прогрессивная
Порядок развёртки : 2:3 Pulldown
Метод сжатия : С потерями
Бит/(Пиксели*Кадры) : 0.597
Временной код первого кадра : 01:00:00:00
Оригинал временного кода : Group of pictures header
Размер потока : 931 Мбайт (91%)
Основные цвета : BT.601 NTSC
Характеристики трансфера : BT.601
Коэффициенты матрицы : BT.601

Аудио #1
Идентификатор : 189 (0xBD)-128 (0x80)
Формат : AC-3
Формат/Информация : Audio Coding 3
Расширение режима : CM (complete main)
Параметр Endianness формата : Big
Режим смешивания : DVD-Video
Продолжительность : 26 м.
Вид битрейта : Постоянный
Битрейт : 192 Кбит/сек
Каналы : 2 канала
Расположение каналов : Front: L R
Частота : 48,0 КГц
Битовая глубина : 16 бит
Метод сжатия : С потерями
Размер потока : 36,1 Мбайт (4%)

Аудио #2
Идентификатор : 189 (0xBD)-129 (0x81)
Формат : AC-3
Формат/Информация : Audio Coding 3
Расширение режима : CM (complete main)
Параметр Endianness формата : Big
Режим смешивания : DVD-Video
Продолжительность : 26 м.
Вид битрейта : Постоянный
Битрейт : 192 Кбит/сек
Каналы : 2 канала
Расположение каналов : Front: L R
Частота : 48,0 КГц
Битовая глубина : 16 бит
Метод сжатия : С потерями
Размер потока : 36,1 Мбайт (4%)

Меню


Трекер:  [ 14-Фев-2014 14:37 ]

  

Скачать .torrent

Размер .torrent файла 16 KB


Размер: 3.07 GB
Хэш (hash) релиза: e3750a7bc07fd23c00aad65f7711c3b129b9c835

Еще никто не оставлял запись к записи скачать торрент Oni Chichi: Rebuild Демон отец: Возвращение . Будь первым!

!Обратная связь