Скачать через торрент Ди-Фраг Адский Ад бесплатно Аниме Все серии на русском torrent

Если у вас наблюдаются проблемы со скриншотами, переходом по ссылками, скачиванием торрентов - проблемы в блокировщике рекламы AdBlock. #хорошегоДня!


Статистика раздачи
Размер:  2.21 GB   |    Зарегистрирован:  3 года 9 месяцев   |    .torrent скачан:  27 раз   |   
Раздают:  1  
   
Загрузка...
 
Автор Сообщение

Polarnik

avatar Polarnik


Ди-Фраг / Адский Ад / D-Frag!
Страна: Япония
Год выпуска: 2014 г.
Жанр: Комедия, повседневность, школа
Продолжительность: 12 эп. по 25 мин
русские субтитры: внешним файлом
Переводчик/Редактор: Jenia aka Zub
Редактор/Оформление: Сова [HUNTA]
Переводчик: Adiost
Редактор: Fatotaku
Редактор/Оформление: Schum
Редактор/Оформление: ElSwanko
Переводчик/Тайм-код: kvaking

Режиссер: Сугавара Сэйки

Студия:

Описание: Казама Кенджи с двумя своими дружками известен как самая ужасная банда школы - банда Казамы. И вот однажды они решают зайти в клуб исследования игровой индустрии (название я чуть переиначил Game Productions Club) чтоб позаимствовать пару-тройку игр... но не тут-то было...

Равка: Leopard-Raws
Качество: HDTVRip
Хардсаб: Отсутствует
Формат видео: mp4
Видео: AVC, 8 bits, 1280x720; 23.976 fps; 1649 Kbps, (16:9)
Аудио:
1. JP - AAC, 48.0 KHz, 192 kbps, 2 ch
01.
Общее
Полное имя : H:\[Leopard-Raws]\[Leopard-Raws] D-Frag!\[Leopard-Raws] D-Frag! - 01 RAW (TX 1280x720 x264 AAC).mp4
Формат : MPEG-4
Профиль формата : Base Media
Идентификатор кодека : isom
Размер файла : 320 Мбайт
Продолжительность : 24 м.
Режим общего битрейта : Переменный
Общий поток : 1844 Кбит/сек
Дата кодирования : UTC 2014-01-07 05:57:46
Дата пометки : UTC 2014-01-07 05:57:46

Видео
Идентификатор : 1
Формат : AVC
Формат/Информация : Advanced Video Codec
Профиль формата : High@L4.1
Параметр CABAC формата : Да
Параметр ReFrames формата : 4 кадра
Идентификатор кодека : avc1
Идентификатор кодека/Информация : Advanced Video Coding
Продолжительность : 24 м.
Битрейт : 1649 Кбит/сек
Максимальный битрейт : 12,4 Мбит/сек
Ширина : 1280 пикселей
Высота : 720 пикселей
Соотношение сторон : 16:9
Режим частоты кадров : Постоянный
Частота кадров : 23,976 кадра/сек
Цветовое пространство : YUV
Субдискретизация насыщенности : 4:2:0
Битовая глубина : 8 бит
Тип развёртки : Прогрессивная
Бит/(Пиксели*Кадры) : 0.075
Размер потока : 286 Мбайт (89%)
Заголовок : 264:fps=23.976@GPAC0.5.1-DEV-rev4283
Библиотека кодирования : x264 core 129 r2245+729M 1a52e03
Настройки программы : cabac=1 / ref=4 / deblock=1:1:-1 / analyse=0x3:0x113 / me=umh / subme=9 / psy=1 / fade_compensate=0.00 / psy_rd=1.00:0.00 / mixed_ref=1 / me_range=24 / chroma_me=1 / trellis=2 / 8x8dct=1 / cqm=0 / deadzone=21,11 / fast_pskip=1 / chroma_qp_offset=-2 / threads=8 / lookahead_threads=1 / sliced_threads=0 / nr=0 / decimate=1 / interlaced=0 / bluray_compat=0 / constrained_intra=0 / fgo=0 / bframes=9 / b_pyramid=2 / b_adapt=2 / b_bias=0 / direct=1 / weightb=1 / open_gop=0 / weightp=2 / keyint=240 / keyint_min=24 / scenecut=40 / intra_refresh=0 / rc=crf / mbtree=0 / crf=19.0 / qcomp=0.72 / qpmin=0 / qpmax=69 / qpstep=4 / ip_ratio=1.40 / pb_ratio=1.30 / aq=1:0.85
Дата кодирования : UTC 2014-01-07 05:57:46
Дата пометки : UTC 2014-01-07 05:57:48
Основные цвета : BT.709
Характеристики трансфера : BT.709
Коэффициенты матрицы : BT.709

Аудио
Идентификатор : 2
Формат : AAC
Формат/Информация : Advanced Audio Codec
Профиль формата : LC
Идентификатор кодека : 40
Продолжительность : 24 м.
Вид битрейта : Переменный
Битрейт : 192 Кбит/сек
Максимальный битрейт : 225 Кбит/сек
Каналы : 2 канала
Расположение каналов : Front: L R
Частота : 48,0 КГц
Метод сжатия : С потерями
Размер потока : 33,1 Мбайт (10%)
Язык : Japanese
Дата кодирования : UTC 2014-01-06 18:31:42
Дата пометки : UTC 2014-01-07 05:57:48


Трекер:  [ 21-Фев-2014 14:57 ]

  

Скачать .torrent

Размер .torrent файла 14 KB


Размер: 2.21 GB
Хэш (hash) релиза: c5657b2c25c93e70247a2dd39ee9c33b654c6d76
Подписка на обновления:

Торренты, похожие на Ди-Фраг Адский Ад скачать торрент

Форум Название Автор Размер S L Добавлен
Аниме | HD Rips ·· Ди-Фраг / Адский Ад / D-Frag! / D-Fragments (Сугавара Сэйки) [TV] [12 из 12] [Без хардсаба] [JAP, RUS(ext), SUB] [2014 г., комедия, BDRip] [1080p] Galfimbul 1739638435516.2 GB 0 0 1472821216

16:00

2-Сен-16

Аниме | Rips ·· Ди-Фраг / Адский Ад / D-Frag! / D-Fragments [OVA] [1 из 1] [Без хардсаба] [JAP, SUB] [2014 г., комедия, повседневность, DVDRip] Galfimbul 112473444107 MB 0 0 1413036241

17:04

11-Окт-14

Аниме | Rips ·· Ди-Фраг / Адский Ад / D-Frag! / D-Fragments (Сугавара Сэйки) [TV] [12 из 12] [без хардсаба] [RUS(ext), JAP+SUB] [2014 г., комедия, BDRip] [720p] Galfimbul 85062097437.92 GB 0 0 1412411481

11:31

4-Окт-14

Аниме | HD Rips ·· Ди-Фраг / Адский Ад / D-Frag! / D-Fragments (Сугавара Сэйки) [TV] [12 из 12] [без хардсаба] [RUS(ext), JAP+SUB] [2014 г., комедия, BDRip] [720p] Galfimbul 91900460068.56 GB 0 0 1412411465

11:31

4-Окт-14

Аниме | HD Rips ·· Ди-Фраг / Адский Ад / D-Frag! / D-Fragments (Сугавара Сэйки) [TV] [8 из 12] [Без хардсаба] [JAP, RUS(ext), SUB] [2014 г., комедия, BDRip] [1080p] Galfimbul 1355410044112.62 GB 0 0 1410886858

20:00

16-Сен-14

Аниме | HD Rips ·· Ди-Фраг / Адский Ад / D-Frag! (Сугавара Сэйки) [TV] [12 из 12] [без хардсаба] [RUS(ext), JAP+SUB] [2014 г., комедия, повседневность, школа, BDRemux] [1080p] Galfimbul 6174079486557.5 GB 0 0 1417471492

01:04

2-Дек-14

Еще никто не оставлял запись к записи скачать торрент Ди-Фраг Адский Ад . Будь первым!

!Обратная связь