Скачать через торрент XXII Зимние Олимпийские Игры 2014 Хоккей Фильм бесплатно в хорошем качестве torrent

Скачивайте на UnionPeer.org фильмы через торрент без регистрации. Новинки кино в хорошем качестве через торрент. На UnionPeer.org можно скачать через торрент фильмы 2014 и 2015 годов. Самые новые фильмы.

Скачать торрент XXII Зимние Олимпийские Игры 2014 Хоккей бесплатно через .torrent фильм мультфильм сериал

Если у вас наблюдаются проблемы со скриншотами, переходом по ссылками, скачиванием торрентов - проблемы в блокировщике рекламы AdBlock. #хорошегоДня!


Статистика раздачи
Размер:  11.19 GB   |    Зарегистрирован:  3 года 10 месяцев   |    .torrent скачан:  41 раз   |   
Раздают:  1  
   
Загрузка...
 
Автор Сообщение

Galfimbul

avatar Galfimbul


XXII Зимние Олимпийские Игры 2014 / Хоккей / Предварительный раунд / Мужчины / Группа A / Словакия - США

Вид спорта: Хоккей
Дата/Год выпуска: 13.02.14
Язык комментариев: русский

Автор записи: SashaR.

Качество: DVB-S2 Remux
Формат видео: TS
Видео: AVC, 1920x1080, 16:9, 14.5 Mbps, 25 fps
Аудио: MP2, 192 kbps, 48 kHz, 2 channels
Аудио: AC-3, 448 kbps, 48 kHz, 5 channels
J:\Олимпиада\Хоккей. Предварительный раунд. Мужчины. Группа A. Словакия - США (НТВ+).ts
General #6
ID : 6 (0x6)
Complete name : J:\Олимпиада\Хоккей. Предварительный раунд. Мужчины. Группа A. Словакия - США (НТВ+).ts
Format : MPEG-TS
File size : 11.2 GiB
Duration : 1h 40mn
Overall bit rate : 15.9 Mbps
Video #322
ID : 322 (0x142)
Menu ID : 12102 (0x2F46)
Format : AVC
Format/Info : Advanced Video Codec
Codec ID : 27
Duration : 1h 40mn
Bit rate : 14.5 Mbps
Stream size : 10.2 GiB (91%)
Audio #402
ID : 402 (0x192)
Menu ID : 12102 (0x2F46)
Format : AC-3
Format/Info : Audio Coding 3
Mode extension : CM (complete main)
Format settings, Endianness : Big
Codec ID : 6
Duration : 160ms
Bit rate mode : Constant
Bit rate : 448 Kbps
Channel count : 5 channels
Channel positions : Front: L C R, Side: L R
Sampling rate : 48.0 KHz
Bit depth : 16 bits
Compression mode : Lossy
Stream size : 8.75 KiB (0%)
Language : Russian
Language, more info : Clean effects
Audio #422
ID : 422 (0x1A6)
Menu ID : 12102 (0x2F46)
Format : MPEG Audio
Format version : Version 1
Format profile : Layer 2
Codec ID : 4
Duration : 48ms
Bit rate mode : Constant
Bit rate : 192 Kbps
Channel count : 2 channels
Sampling rate : 48.0 KHz
Compression mode : Lossy
Stream size : 1.13 KiB (0%)
Language : Russian
Language, more info : Clean effects
01:40:49


Трекер:  [ 14-Фев-2014 22:26 ]

  

Скачать .torrent

Размер .torrent файла 112 KB


Размер: 11.19 GB
Хэш (hash) релиза: df40df0b996c672167c08586ae15117e5e45d6db
Подписка на обновления:

Еще никто не оставлял запись к записи скачать торрент XXII Зимние Олимпийские Игры 2014 Хоккей . Будь первым!

!Обратная связь