Скачать через торрент XXII Зимние Олимпийские Игры 2014. Лыжные гонки. Спринт. Квалификация - Aиналы. Мужчины и Женщины Фильм бесплатно в хорошем качестве torrent

Скачивайте на UnionPeer.org фильмы через торрент без регистрации. Новинки кино в хорошем качестве через торрент. На UnionPeer.org можно скачать через торрент фильмы 2014 и 2015 годов. Самые новые фильмы.

Скачать торрент XXII Зимние Олимпийские Игры 2014. Лыжные гонки. Спринт. Квалификация - Aиналы. Мужчины и Женщины бесплатно через .torrent фильм мультфильм сериал

Если у вас наблюдаются проблемы со скриншотами, переходом по ссылками, скачиванием торрентов - проблемы в блокировщике рекламы AdBlock. #хорошегоДня!


Статистика раздачи
Размер:  21.33 GB   |    Зарегистрирован:  3 года 10 месяцев   |    .torrent скачан:  37 раз   |   
Раздают:  1  
   
Загрузка...
 
Автор Сообщение

Galfimbul

avatar Galfimbul


XXII Зимние Олимпийские Игры 2014. Лыжные гонки. Спринт. Квалификация - Финалы. Мужчины и Женщины

Вид спорта: Лыжные гонки
Дата/Год выпуска: 11.02.14
Язык комментариев: русский

Автор записи: SashaR.

Качество: DVB-S2 Remux
Формат видео: TS
Видео: AVC, 1920x1080, 16:9, 12.4 Mbps, 25 fps
Аудио: MP2, 192 kbps, 48 kHz, 2 channels
J:\Олимпиада\Лыжные гонки. Спринт\Лыжные гонки. Спринт. Квалификация.ts
General #6
ID : 6 (0x6)
Complete name : J:\Олимпиада\Лыжные гонки. Спринт\Лыжные гонки. Спринт. Квалификация.ts
Format : MPEG-TS
File size : 7.05 GiB
Duration : 1h 16mn
Overall bit rate mode : Variable
Overall bit rate : 13.2 Mbps
Video #322
ID : 322 (0x142)
Menu ID : 12102 (0x2F46)
Format : AVC
Format/Info : Advanced Video Codec
Format profile : High@L4.0
Format settings, CABAC : Yes
Format settings, ReFrames : 3 frames
Codec ID : 27
Duration : 1h 16mn
Bit rate : 12.4 Mbps
Width : 1 920 pixels
Height : 1 080 pixels
Display aspect ratio : 16:9
Frame rate : 25.000 fps
Standard : Component
Color space : YUV
Chroma subsampling : 4:2:0
Bit depth : 8 bits
Scan type : Interlaced
Scan order : Top Field First
Bits/(Pixel*Frame) : 0.239
Stream size : 6.60 GiB (94%)
Color primaries : BT.709
Transfer characteristics : BT.709
Matrix coefficients : BT.709
Audio #422
ID : 422 (0x1A6)
Menu ID : 12102 (0x2F46)
Format : MPEG Audio
Format version : Version 1
Format profile : Layer 2
Codec ID : 4
Duration : 1h 16mn
Bit rate mode : Constant
Bit rate : 192 Kbps
Channel count : 2 channels
Sampling rate : 48.0 KHz
Compression mode : Lossy
Delay relative to video : 68ms
Stream size : 105 MiB (1%)
Language : Russian
Language, more info : Clean effects
Квалификация - 01:16:13
Финалы - 02:19:45


Трекер:  [ 15-Фев-2014 11:26 ]

  

Скачать .torrent

Размер .torrent файла 107 KB


Размер: 21.33 GB
Хэш (hash) релиза: 5d5b04ea54210f987d3fee574fead340b2a7b830
Подписка на обновления:

Еще никто не оставлял запись к записи скачать торрент XXII Зимние Олимпийские Игры 2014. Лыжные гонки. Спринт. Квалификация - Aиналы. Мужчины и Женщины . Будь первым!

!Обратная связь