Скачать через торрент XXII Зимние Олимпийские Игры 2014 Дневник Олимпиады Фильм бесплатно в хорошем качестве torrent

Скачивайте на UnionPeer.org фильмы через торрент без регистрации. Новинки кино в хорошем качестве через торрент. На UnionPeer.org можно скачать через торрент фильмы 2014 и 2015 годов. Самые новые фильмы.

Скачать торрент XXII Зимние Олимпийские Игры 2014 Дневник Олимпиады бесплатно через .torrent фильм мультфильм сериал

Если у вас наблюдаются проблемы со скриншотами, переходом по ссылками, скачиванием торрентов - проблемы в блокировщике рекламы AdBlock. #хорошегоДня!


Статистика раздачи
Размер:  672 MB   |    Зарегистрирован:  3 года 10 месяцев   |    .torrent скачан:  37 раз   |   
Раздают:  1  
   
Загрузка...
 
Автор Сообщение

Galfimbul

avatar Galfimbul


Дневник Олимпиады. Выпуск №14. 15.02.2014 - Утро

Год выпуска: 2014
Дата эфира: 15 февраля
Ведущий: Дмитрий Губерниев
Язык комментариев: Русский
Продолжительность: 00:24:25
Описание: Утренний выпуск за 15 февраля 2014 г. Дневника Олимпиады ВГТРК.

С 10 февраля "дневник олимпиады" выходит 2 раза в день!
Автор рипа: sanchez2011

Качество: DVB
Формат: MPEG-PS
Видео кодек: MPEG2
Аудио кодек: MP2
Видео: MPEG2 Video 720x576 (4:3) 3557kbps 25fps
Аудио: MPEG Audio 48000Hz stereo 192kbps
GeneralComplete name : C:\Users\admin\Desktop\Дневник Олимпиады. Выпуск №14.mpgFormat : MPEG-PSFile size : 672 MiBDuration : 24mn 25sOverall bit rate mode : VariableOverall bit rate : 3 845 Kbps

VideoID : 224 (0xE0)Format : MPEG VideoFormat version : Version 2Format profile : Main@MainFormat settings, BVOP : YesFormat settings, Matrix : CustomFormat settings, GOP : VariableDuration : 24mn 25sBit rate mode : VariableBit rate : 3 577 KbpsMaximum bit rate : 15.0 MbpsWidth : 720 pixelsHeight : 576 pixelsDisplay aspect ratio : 4:3Frame rate : 25.000 fpsStandard : PALColor space : YUVChroma subsampling : 4:2:0Bit depth : 8 bitsScan type : InterlacedScan order : Top Field FirstCompression mode : LossyBits/(Pixel*Frame) : 0.345Time code of first frame : 00:00:00:00Time code source : Group of pictures headerStream size : 625 MiB (93%)

AudioID : 192 (0xC0)Format : MPEG AudioFormat version : Version 1Format profile : Layer 2Duration : 24mn 25sBit rate mode : ConstantBit rate : 192 KbpsChannel(s) : 2 channelsSampling rate : 48.0 KHzCompression mode : LossyStream size : 33.5 MiB (5%)


Трекер:  [ 15-Фев-2014 12:21 ]

  

Скачать .torrent

Размер .torrent файла 13 KB


Размер: 672 MB
Хэш (hash) релиза: 7c76c880e0c0c416ceb0340a483eebb2c2f3057b
Подписка на обновления:

Еще никто не оставлял запись к записи скачать торрент XXII Зимние Олимпийские Игры 2014 Дневник Олимпиады . Будь первым!

!Обратная связь