Скачать через торрент XXII Зимние Олимпийские Игры 2014. Кёрлинг. Круговой этап. Сессия 9. Женщины. Россия - Канада Первый Канал Фильм бесплатно в хорошем качестве torrent

Скачивайте на UnionPeer.org фильмы через торрент без регистрации. Новинки кино в хорошем качестве через торрент. На UnionPeer.org можно скачать через торрент фильмы 2014 и 2015 годов. Самые новые фильмы.

Скачать торрент XXII Зимние Олимпийские Игры 2014. Кёрлинг. Круговой этап. Сессия 9. Женщины. Россия - Канада Первый Канал бесплатно через .torrent фильм мультфильм сериал

Если у вас наблюдаются проблемы со скриншотами, переходом по ссылками, скачиванием торрентов - проблемы в блокировщике рекламы AdBlock. #хорошегоДня!


Статистика раздачи
Размер:  2.36 GB   |    Зарегистрирован:  3 года 10 месяцев   |    .torrent скачан:  36 раз   |   
Раздают:  1  
   
Загрузка...
 
Автор Сообщение

Galfimbul

avatar Galfimbul


XXII Зимние Олимпийские Игры 2014. Кёрлинг. Круговой этап. Сессия 9. Женщины. Россия - Канада

Вид спорта: Кёрлинг
Комментарий: Профессиональный
Язык комментариев: Русский (Владимир Гомельский)
Описание: XXII Зимние Олимпийские Игры 2014. Кёрлинг. Круговой этап. Сессия 9. Женщины. Россия - Канада.

Трансляция прервана выпуском новостей в 8 энде. В эфир вернулись на 10-м энде. Начата трансляция со второго энда.
Автор рипа: sanchez2011
Качество: DVB
Формат: MPEG-TS
Видео кодек: AVC
Аудио кодек: MP2
Видео: MPEG4 Video (H264) 720x576 (16:9) 25fps 2600kbps
Аудио: MPEG Audio 48000Hz stereo 192kbps
Все результаты соревнований

Продолжительность: 01:52:25
GeneralID : 1 (0x1)Complete name : E:\Олимпиада 2014\XXII Зимние Олимпийские Игры 2014. 15.02.2014 Кёрлинг. Круговой этап. Сессия 9. Женщины. Россия - Канада.tsFormat : MPEG-TSFile size : 2.36 GiBDuration : 1h 52mnOverall bit rate mode : VariableOverall bit rate : 3 003 Kbps

VideoID : 1011 (0x3F3)Menu ID : 1 (0x1)Format : AVCFormat/Info : Advanced Video CodecFormat profile : Main@L3.0Format settings, CABAC : YesFormat settings, ReFrames : 3 framesFormat settings, GOP : M=4, N=28Codec ID : 27Duration : 1h 52mnBit rate : 2 660 KbpsWidth : 720 pixelsHeight : 576 pixelsDisplay aspect ratio : 16:9Frame rate : 25.000 fpsStandard : ComponentColor space : YUVChroma subsampling : 4:2:0Bit depth : 8 bitsScan type : InterlacedScan order : Top Field FirstBits/(Pixel*Frame) : 0.257Stream size : 2.09 GiB (89%)Color primaries : BT.601 PALTransfer characteristics : BT.470 System B, BT.470 System GMatrix coefficients : BT.601

AudioID : 1012 (0x3F4)Menu ID : 1 (0x1)Format : MPEG AudioFormat version : Version 1Format profile : Layer 2Codec ID : 3Duration : 1h 52mnBit rate mode : ConstantBit rate : 192 KbpsChannel(s) : 2 channelsSampling rate : 48.0 KHzCompression mode : LossyStream size : 154 MiB (6%)Language : English

TextID : 1014 (0x3F6)-100Menu ID : 1 (0x1)Format : TeletextLanguage : Russian

MenuID : 256 (0x100)Menu ID : 1 (0x1)Duration : 1h 52mnList : 1011 (0x3F3) (AVC) / 1012 (0x3F4) (MPEG Audio, English) / 1014 (0x3F6) ()Language : / English


Трекер:  [ 15-Фев-2014 22:46 ]

  

Скачать .torrent

Размер .torrent файла 12 KB


Размер: 2.36 GB
Хэш (hash) релиза: 2434457c94f72d1eccda702d87ebf7db8bb77eca
Подписка на обновления:

Еще никто не оставлял запись к записи скачать торрент XXII Зимние Олимпийские Игры 2014. Кёрлинг. Круговой этап. Сессия 9. Женщины. Россия - Канада Первый Канал . Будь первым!

!Обратная связь