Скачать через торрент Олимпийские Вершины. Хоккей Первый Канал HD Фильм бесплатно в хорошем качестве torrent

Скачивайте на UnionPeer.org фильмы через торрент без регистрации. Новинки кино в хорошем качестве через торрент. На UnionPeer.org можно скачать через торрент фильмы 2014 и 2015 годов. Самые новые фильмы.

Скачать торрент Олимпийские Вершины. Хоккей Первый Канал HD бесплатно через .torrent фильм мультфильм сериал

Если у вас наблюдаются проблемы со скриншотами, переходом по ссылками, скачиванием торрентов - проблемы в блокировщике рекламы AdBlock. #хорошегоДня!


Статистика раздачи
Размер:  589 MB   |    Зарегистрирован:  3 года 9 месяцев   |    .torrent скачан:  40 раз   |   
Раздают:  1  
   
Загрузка...
 
Автор Сообщение

Galfimbul

avatar Galfimbul


Олимпийские Вершины. Хоккей

Вид спорта: Хоккей
Комментарий: Профессиональный
Язык комментариев: Русский
Продолжительность: 00:50:00

Описание: Имена российских хоккеистов знает весь мир: Овечкин, Ковальчук, Харламов, Третьяк, Майоров, Фетисов. Наши хоккеисты господствовали на чемпионатах мира и Олимпийских играх десятилетиями.

Ведущая цикла "Олимпийские вершины" Татьяна Навка: "Хоккей – самая народная игра. Не в том смысле, что все в него играют. Хотя мы, например, после ледового шоу, когда зрители разошлись, иногда с фигуристами выходим на лед с клюшками. Я даже голы забиваю".

Хоккей у нас в стране всегда был больше чем игра. Героев мировых турниров встречали, как первых космонавтов. Но последнее олимпийское золото было взято в Альбервилле в 1992 году.

Уже выросло поколение, которое не видело олимпийских побед в хоккее. В 2008 году, на чемпионате мира мы вернули себе звание сильнейшей хоккейной сборной. Во всeм мире заговорили о возвращении "красной машины". Мы расскажем историю наших побед, уникальные подробности матчей, участники вспомнят моменты, известные только им, а также расскажут, что осталось вне поля зрения любителей хоккея.

Анатолий Владимирович Тарасов. "Британская энциклопедия" называет его отцом русского хоккея. Вместе с Аркадием Чернышевым они создали ту самую "красную машину", которая десяток лет громила соперников на всех международных турнирах.

Знаменитая тройка Михайлов-Петров-Харламов. Для фанатов хоккея в семидесятых это звучало как одна фамилия.
Валерий Харламов. Он стал легендой еще при жизни. Легендой №17. Под этим номером на форме его узнал весь мир, когда в 1972 года сборная СССР разгромила канадских профессионалов из НХЛ в знаменитой суперсерии СССР-Канада. Это была настоящая битва, которая перевернула мировое представление о хоккее…
В фильме использована уникальная хроника всех зимних Олимпийских игр с участием нашей сборной.

В фильме принимают участие: Владислав Третьяк, Вячеслав Фетисов, Илья Ковальчук, Александр Овечкин, Александр Якушев, Борис Михайлов, Виталий Давыдов, Алексей Касатонов Вячеслав Буцаев, Виталий Прохоров и др.

Автор рипа: sanchez2011

Качество: HDTVRip
Формат: MKV
Видео кодек: AVC
Аудио кодек: MP3
Видео: MPEG4 Video (H264) 704x400 (16:9) 1500kbps 25fps
Аудио: MPEG Audio Layer 3 48000Hz stereo 128kbps
GeneralUnique ID : 216933096433899524721156367079562294291 (0xA333CB6D34320846B4188E50B3043413)Complete name : E:\Олимпиада 2014\Олимпийские Вершины. Хоккей.mkvFormat : MatroskaFormat version : Version 4 / Version 2File size : 589 MiBDuration : 49mn 59sOverall bit rate : 1 647 KbpsEncoded date : UTC 2014-02-16 10:54:40Writing application : mkvmerge v6.7.0 ('Back to the Ground') 64bit built on Jan 8 2014 15:10:52Writing library : XviD4PSP 6.0 / 53.6.0

VideoID : 1Format : AVCFormat/Info : Advanced Video CodecFormat profile : High@L4.1Format settings, CABAC : YesFormat settings, ReFrames : 3 framesCodec ID : V_MPEG4/ISO/AVCDuration : 49mn 59sBit rate : 1 500 KbpsWidth : 704 pixelsHeight : 400 pixelsDisplay aspect ratio : 16:9Frame rate mode : ConstantFrame rate : 25.000 fpsColor space : YUVChroma subsampling : 4:2:0Bit depth : 8 bitsScan type : ProgressiveBits/(Pixel*Frame) : 0.213Stream size : 531 MiB (90%)Writing library : x264 core 116 r2019M 9cc407dEncoding settings : cabac=1 / ref=3 / deblock=1:0:0 / analyse=0x3:0x133 / me=hex / subme=7 / psy=1 / psy_rd=1.00:0.20 / mixed_ref=1 / me_range=16 / chroma_me=1 / trellis=1 / 8x8dct=1 / cqm=0 / deadzone=21,11 / fast_pskip=1 / chroma_qp_offset=-3 / threads=8 / sliced_threads=0 / nr=0 / decimate=1 / interlaced=0 / bluray_compat=0 / constrained_intra=0 / bframes=3 / b_pyramid=1 / b_adapt=2 / b_bias=0 / direct=3 / weightb=1 / open_gop=0 / weightp=2 / keyint=250 / keyint_min=25 / scenecut=40 / intra_refresh=0 / rc_lookahead=40 / rc=abr / mbtree=1 / bitrate=1500 / ratetol=1.0 / qcomp=0.60 / qpmin=10 / qpmax=51 / qpstep=4 / ip_ratio=1.40 / aq=1:1.00Default : YesForced : No

AudioID : 2Format : MPEG AudioFormat version : Version 1Format profile : Layer 3Mode : Joint stereoMode extension : MS StereoCodec ID : A_MPEG/L3Codec ID/Hint : MP3Duration : 49mn 59sBit rate mode : ConstantBit rate : 128 KbpsChannel(s) : 2 channelsSampling rate : 48.0 KHzCompression mode : LossyStream size : 45.8 MiB (8%)Writing library : LAME3.98.2Language : RussianDefault : YesForced : No


Трекер:  [ 16-Фев-2014 14:32 ]

  

Скачать .torrent

Размер .torrent файла 12 KB


Размер: 589 MB
Хэш (hash) релиза: a34d20d63ff8a28a8fc6d593ff15db50a5c708f3
Подписка на обновления:

Торренты, похожие на Олимпийские Вершины. Хоккей Первый Канал HD скачать торрент

Форум Название Автор Размер S L Добавлен
Зимние Олимпийские игры в Сочи 2014 ·· Олимпийские Вершины. Хоккей / Первый Канал HD [16.02.2014 г., Хоккей, Документальный, HDTV, 1080i] Galfimbul 52948058684.93 GB 0 0 1392546534

13:28

16-Фев-14

Зимние Олимпийские игры в Сочи 2014 ·· Олимпийские Вершины. Фигурное катание / Первый Канал HD [22.02.2014 г., Хоккей, Документальный, HDTVRip, MKV, 400p] Galfimbul 471830692450 MB 0 0 1393095382

21:56

22-Фев-14

Еще никто не оставлял запись к записи скачать торрент Олимпийские Вершины. Хоккей Первый Канал HD . Будь первым!

!Обратная связь