Скачать через торрент XXII Зимние Олимпийские Игры 2014. Кёрлинг. Круговой этап. Сессия 10. Женщины. Россия - Швеция. НТВ+ Фильм бесплатно в хорошем качестве torrent

Скачивайте на UnionPeer.org фильмы через торрент без регистрации. Новинки кино в хорошем качестве через торрент. На UnionPeer.org можно скачать через торрент фильмы 2014 и 2015 годов. Самые новые фильмы.

Скачать торрент XXII Зимние Олимпийские Игры 2014. Кёрлинг. Круговой этап. Сессия 10. Женщины. Россия - Швеция. НТВ+ бесплатно через .torrent фильм мультфильм сериал

Если у вас наблюдаются проблемы со скриншотами, переходом по ссылками, скачиванием торрентов - проблемы в блокировщике рекламы AdBlock. #хорошегоДня!


Статистика раздачи
Размер:  15.59 GB   |    Зарегистрирован:  3 года 10 месяцев   |    .torrent скачан:  34 раза   |   
Раздают:  1  
   
Загрузка...
 
Автор Сообщение

Galfimbul

avatar Galfimbul


XXII Зимние Олимпийские Игры 2014. Кёрлинг. Круговой этап. Сессия 10. Женщины. Россия - Швеция

Вид спорта: Кёрлинг
Дата/Год выпуска: 16.02.14
Язык комментариев: русский

Автор записи: SashaR.

Качество: HDTV
Формат видео: TS
Видео: AVC, 1920x1080, 16:9, 15.2 Mbps, 25 fps
Аудио: MP2, 192 kbps, 48 kHz, 2 channels
G:\Олимпиада\Кёрлинг. Круговой этап. Сессия 10. Женщины. Россия - Швеция (НТВ+).ts
General #6
ID : 6 (0x6)
Complete name : G:\Олимпиада\Кёрлинг. Круговой этап. Сессия 10. Женщины. Россия - Швеция (НТВ+).ts
Format : MPEG-TS
File size : 15.6 GiB
Duration : 2h 18mn
Overall bit rate mode : Variable
Overall bit rate : 16.1 Mbps
Video #301
ID : 301 (0x12D)
Menu ID : 17101 (0x42CD)
Format : AVC
Format/Info : Advanced Video Codec
Format profile : High@L4.0
Format settings, CABAC : Yes
Format settings, ReFrames : 3 frames
Codec ID : 27
Duration : 2h 18mn
Bit rate : 15.2 Mbps
Width : 1 920 pixels
Height : 1 080 pixels
Display aspect ratio : 16:9
Frame rate : 25.000 fps
Standard : Component
Color space : YUV
Chroma subsampling : 4:2:0
Bit depth : 8 bits
Scan type : Interlaced
Scan order : Top Field First
Bits/(Pixel*Frame) : 0.292
Stream size : 14.6 GiB (94%)
Color primaries : BT.709
Transfer characteristics : BT.709
Matrix coefficients : BT.709
Audio #401
ID : 401 (0x191)
Menu ID : 17101 (0x42CD)
Format : MPEG Audio
Format version : Version 1
Format profile : Layer 2
Codec ID : 4
Duration : 2h 18mn
Bit rate mode : Constant
Bit rate : 192 Kbps
Channel count : 2 channels
Sampling rate : 48.0 KHz
Compression mode : Lossy
Delay relative to video : 31ms
Stream size : 190 MiB (1%)
Language : Russian
Language, more info : Clean effects
02:18:14


Трекер:  [ 17-Фев-2014 10:47 ]

  

Скачать .torrent

Размер .torrent файла 156 KB


Размер: 15.59 GB
Хэш (hash) релиза: cfb984ac8c3e9edfa89228db1a45d2c4482882ff
Подписка на обновления:

Еще никто не оставлял запись к записи скачать торрент XXII Зимние Олимпийские Игры 2014. Кёрлинг. Круговой этап. Сессия 10. Женщины. Россия - Швеция. НТВ+ . Будь первым!

!Обратная связь