Скачать через торрент XXII Зимние Олимпийские Игры 2014. Биатлон. Мужчины. Масс-старт 15 км Первый Канал HD Фильм бесплатно в хорошем качестве torrent

Скачивайте на UnionPeer.org фильмы через торрент без регистрации. Новинки кино в хорошем качестве через торрент. На UnionPeer.org можно скачать через торрент фильмы 2014 и 2015 годов. Самые новые фильмы.

Скачать торрент XXII Зимние Олимпийские Игры 2014. Биатлон. Мужчины. Масс-старт 15 км Первый Канал HD бесплатно через .torrent фильм мультфильм сериал

Если у вас наблюдаются проблемы со скриншотами, переходом по ссылками, скачиванием торрентов - проблемы в блокировщике рекламы AdBlock. #хорошегоДня!


Статистика раздачи
Размер:  676 MB   |    Зарегистрирован:  3 года 9 месяцев   |    .torrent скачан:  33 раза   |   
Раздают:  1  
   
Загрузка...
 
Автор Сообщение

Galfimbul

avatar Galfimbul


XXII Зимние Олимпийские Игры 2014. Биатлон. Мужчины. Масс-старт 15 км

Вид спорта: Биатлон
Комментарий: Профессиональный
Язык комментариев: Русский (Набутов, Круглов)
Описание: XXII Зимние Олимпийские Игры 2014. Биатлон. Мужчины. Масс-старт 15 км.

Автор рипа: sanchez2011

Качество: HDTVRip
Формат: MKV
Видео кодек: AVC
Аудио кодек: MP3
Видео: MPEG4 Video (H264) 704x400 ~1700kbps 25fps
Аудио: MPEG Audio Layer 3 48000Hz stereo 128kbps
Все результаты соревнований

Продолжительность: 00:51:42
GeneralUnique ID : 178762205095140645281696753279595068763 (0x867C592EE3F8676153AE7E2E983E3D5B)Complete name : E:\Олимпиада 2014\XXII Зимние Олимпийские Игры 2014. 18.02.2014 Биатлон. Мужчины. Масс-старт 15 км.mkvFormat : MatroskaFormat version : Version 2File size : 676 MiBDuration : 51mn 42sOverall bit rate : 1 828 KbpsWriting application : XviD4PSP 6.0 / 53.6.0Writing library : XviD4PSP 6.0 / 53.6.0

VideoID : 1Format : AVCFormat/Info : Advanced Video CodecFormat profile : High@L4.1Format settings, CABAC : YesFormat settings, ReFrames : 3 framesCodec ID : V_MPEG4/ISO/AVCDuration : 51mn 42sBit rate : 1 664 KbpsWidth : 704 pixelsHeight : 400 pixelsDisplay aspect ratio : 16:9Frame rate mode : ConstantFrame rate : 25.000 fpsColor space : YUVChroma subsampling : 4:2:0Bit depth : 8 bitsScan type : ProgressiveBits/(Pixel*Frame) : 0.236Stream size : 615 MiB (91%)Writing library : x264 core 116 r2019M 9cc407dEncoding settings : cabac=1 / ref=3 / deblock=1:0:0 / analyse=0x3:0x133 / me=hex / subme=7 / psy=1 / psy_rd=1.00:0.20 / mixed_ref=1 / me_range=16 / chroma_me=1 / trellis=1 / 8x8dct=1 / cqm=0 / deadzone=21,11 / fast_pskip=1 / chroma_qp_offset=-3 / threads=8 / sliced_threads=0 / nr=0 / decimate=1 / interlaced=0 / bluray_compat=0 / constrained_intra=0 / bframes=3 / b_pyramid=1 / b_adapt=2 / b_bias=0 / direct=3 / weightb=1 / open_gop=0 / weightp=2 / keyint=250 / keyint_min=25 / scenecut=40 / intra_refresh=0 / rc_lookahead=40 / rc=crf / mbtree=1 / crf=21.0 / qcomp=0.60 / qpmin=10 / qpmax=51 / qpstep=4 / ip_ratio=1.40 / aq=1:1.00Default : YesForced : No

AudioID : 2Format : MPEG AudioFormat version : Version 1Format profile : Layer 3Mode : Joint stereoMode extension : MS StereoCodec ID : A_MPEG/L3Codec ID/Hint : MP3Duration : 51mn 42sBit rate mode : ConstantBit rate : 128 KbpsChannel(s) : 2 channelsSampling rate : 48.0 KHzCompression mode : LossyStream size : 47.3 MiB (7%)Language : RussianDefault : YesForced : No


Трекер:  [ 18-Фев-2014 20:55 ]

  

Скачать .torrent

Размер .torrent файла 13 KB


Размер: 676 MB
Хэш (hash) релиза: 1d6432bcd6e85bb5a1389cda811cf87f570782a7
Подписка на обновления:

Торренты, похожие на XXII Зимние Олимпийские Игры 2014. Биатлон. Мужчины. Масс-старт 15 км Первый Канал HD скачать торрент

Форум Название Автор Размер S L Добавлен
Зимние Олимпийские игры в Сочи 2014 ·· XXII Зимние Олимпийские Игры 2014. Биатлон. Мужчины. Масс-старт 15 км / Первый Канал HD [18.02.2014 г., Биатлон, HDTV, 1080i] Galfimbul 60489016925.63 GB 0 0 1392739057

18:57

18-Фев-14

Еще никто не оставлял запись к записи скачать торрент XXII Зимние Олимпийские Игры 2014. Биатлон. Мужчины. Масс-старт 15 км Первый Канал HD . Будь первым!

!Обратная связь