Скачать через торрент XXII Зимние Олимпийские Игры 2014. Ски-кросс. Мужчины. Финалы Первый Канал Фильм бесплатно в хорошем качестве torrent

Скачивайте на UnionPeer.org фильмы через торрент без регистрации. Новинки кино в хорошем качестве через торрент. На UnionPeer.org можно скачать через торрент фильмы 2014 и 2015 годов. Самые новые фильмы.

Скачать торрент XXII Зимние Олимпийские Игры 2014. Ски-кросс. Мужчины. Финалы Первый Канал бесплатно через .torrent фильм мультфильм сериал

Если у вас наблюдаются проблемы со скриншотами, переходом по ссылками, скачиванием торрентов - проблемы в блокировщике рекламы AdBlock. #хорошегоДня!


Статистика раздачи
Размер:  2.24 GB   |    Зарегистрирован:  3 года 9 месяцев   |    .torrent скачан:  32 раза   |   
Раздают:  1  
   
Загрузка...
 
Автор Сообщение

Galfimbul

avatar Galfimbul


XXII Зимние Олимпийские Игры 2014. Ски-кросс. Мужчины. Финалы

Вид спорта: Фристайл
Комментарий: Профессиональный
Язык комментариев: Русский
Описание: XXII Зимние Олимпийские Игры 2014. Ски-кросс. Мужчины. Финалы
Автор рипа: sanchez2011

Качество: DVB
Формат: MPEG-PS
Видео кодек: MPEG2
Аудио кодек: MP2
Видео: MPEG2 Video 720x576 (16:9) 25fps 4000Kbps
Аудио: MPEG Audio 48000Hz stereo 192kbps
Все результаты соревнований

Продолжительность: 01:16:14
GeneralComplete name : E:\Олимпиада 2014\XXII Зимние Олимпийские Игры 2014. 20.02.2014 Ски-кросс. Мужчины. Финалы.mpgFormat : MPEG-PSFile size : 2.24 GiBDuration : 1h 16mnOverall bit rate mode : VariableOverall bit rate : 4 214 Kbps

VideoID : 224 (0xE0)Format : MPEG VideoFormat version : Version 2Format profile : Main@MainFormat settings, BVOP : YesFormat settings, Matrix : CustomFormat settings, GOP : M=3, N=36Duration : 1h 16mnBit rate mode : VariableBit rate : 3 938 KbpsMaximum bit rate : 15.0 MbpsWidth : 720 pixelsHeight : 576 pixelsDisplay aspect ratio : 16:9Frame rate : 25.000 fpsStandard : PALColor space : YUVChroma subsampling : 4:2:0Bit depth : 8 bitsScan type : InterlacedScan order : Top Field FirstCompression mode : LossyBits/(Pixel*Frame) : 0.380Time code of first frame : 00:00:00:00Time code source : Group of pictures headerStream size : 2.10 GiB (93%)

AudioID : 192 (0xC0)Format : MPEG AudioFormat version : Version 1Format profile : Layer 2Duration : 1h 16mnBit rate mode : ConstantBit rate : 192 KbpsChannel(s) : 2 channelsSampling rate : 48.0 KHzCompression mode : LossyStream size : 105 MiB (5%)


Трекер:  [ 20-Фев-2014 21:30 ]

  

Скачать .torrent

Размер .torrent файла 11 KB


Размер: 2.24 GB
Хэш (hash) релиза: b7ea16c36e2ef5fbfaa19f6297e45cb35fcf24d1
Подписка на обновления:

Торренты, похожие на XXII Зимние Олимпийские Игры 2014. Ски-кросс. Мужчины. Финалы Первый Канал скачать торрент

Форум Название Автор Размер S L Добавлен
Зимние Олимпийские игры в Сочи 2014 ·· XXII Зимние Олимпийские Игры 2014. Ски-кросс. Мужчины. Финалы / Первый Канал HD [20.02.2014 г., Фристайл, HDTV, 1080i] Galfimbul 55522816445.17 GB 0 0 1392926032

22:53

20-Фев-14

Еще никто не оставлял запись к записи скачать торрент XXII Зимние Олимпийские Игры 2014. Ски-кросс. Мужчины. Финалы Первый Канал . Будь первым!

!Обратная связь