Скачать через торрент Олимпийские Вершины. Фигурное катание Первый Канал HD Фильм бесплатно в хорошем качестве torrent

Скачивайте на UnionPeer.org фильмы через торрент без регистрации. Новинки кино в хорошем качестве через торрент. На UnionPeer.org можно скачать через торрент фильмы 2014 и 2015 годов. Самые новые фильмы.

Скачать торрент Олимпийские Вершины. Фигурное катание Первый Канал HD бесплатно через .torrent фильм мультфильм сериал

Если у вас наблюдаются проблемы со скриншотами, переходом по ссылками, скачиванием торрентов - проблемы в блокировщике рекламы AdBlock. #хорошегоДня!


Статистика раздачи
Размер:  3.61 GB   |    Зарегистрирован:  3 года 9 месяцев   |    .torrent скачан:  114 раз   |   
Раздают:  1  
   
Загрузка...
 
Автор Сообщение

Galfimbul

avatar Galfimbul


Олимпийские Вершины. Фигурное катание

Вид спорта: Фигурное катание
Комментарий: Профессиональный
Язык комментариев: Русский
Продолжительность: 00:49:58

Описание: Фигурное катание. Изящество, красота, грация. За этой стремительной лёгкостью - годы упорных тренировок. История российского фигурного катания — это золотая история побед.

Чемпионы. Они никогда не останавливаются на достигнутом. Каждый шаг к олимпийскому пьедесталу - это шаг за пределы возможного. Они выходят на лeд с одной целью. Чтобы победить.

Ведущая цикла "Олимпийские вершины", олимпийская чемпионка Татьяна Навка побывала на соревнованиях в Сочи. И расскажет о том, что чувствуют спортсмены, выходя на олимпийский лед. Какой ценой достается победа.

В фильме - истории преодолений и побед чемпионов Олимпиады в Сочи – Юлии Липницкой, Татьяны Волосожар и Максима Транькова, олимпийских чемпионов по фигурному катанию Татьяны Навки и Романа Костомарова, Елены Бережной и Антона Сихарулидзе, Ирины Родниной и Александра Зайцева, Натальи Бестемьяновой и Андрея Букина, Людмилы Белоусовой и Олега Протопопова.

Зрители увидят самые яркие фрагменты выступлений наших фигуристов, которые принесли им золотые олимпийские медали. И уникальные фрагменты тренировок наших спортсменов. Мы узнаем и о том, чем занимаются сейчас наши олимпийские чемпионы.

В фильме участвуют: Елена Бережная, Ирина Роднина,Наталья Бестемьянова, Андрей Букин, Татьяна Волосожар, Максим Траньков, Татьяна Тарасова, Александр Жулин, Роман Костомаров, Илья Авербух, Тамара Москвина.

Автор рипа: sanchez2011

Качество: HDTV
Формат: MPEG-TS
Видео кодек: AVC
Аудио кодек: MP2
Видео: MPEG4 Video (H264) 1920x1080 9645Kbps 25fps
Аудио: MPEG Audio 48000Hz stereo 192kbps
GeneralID : 1 (0x1)Complete name : E:\Олимпиада 2014\Олимпийские Вершины. Фигурное Катание.tsFormat : MPEG-TSFile size : 3.61 GiBDuration : 49mn 58sOverall bit rate mode : VariableOverall bit rate : 10.4 Mbps

VideoID : 305 (0x131)Menu ID : 1 (0x1)Format : AVCFormat/Info : Advanced Video CodecFormat profile : High@L4.0Format settings, CABAC : YesFormat settings, ReFrames : 3 framesCodec ID : 27Duration : 49mn 58sBit rate : 9 645 KbpsWidth : 1 920 pixelsHeight : 1 080 pixelsDisplay aspect ratio : 16:9Frame rate : 25.000 fpsStandard : ComponentColor space : YUVChroma subsampling : 4:2:0Bit depth : 8 bitsScan type : InterlacedScan order : Top Field FirstBits/(Pixel*Frame) : 0.186Stream size : 3.37 GiB (93%)Color primaries : BT.709Transfer characteristics : BT.709Matrix coefficients : BT.709

AudioID : 405 (0x195)Menu ID : 1 (0x1)Format : MPEG AudioFormat version : Version 1Format profile : Layer 2Codec ID : 3Duration : 49mn 58sBit rate mode : ConstantBit rate : 192 KbpsChannel(s) : 2 channelsSampling rate : 48.0 KHzCompression mode : LossyStream size : 68.6 MiB (2%)Language : Russian


Трекер:  [ 22-Фев-2014 21:56 ]

  

Скачать .torrent

Размер .torrent файла 18 KB


Размер: 3.61 GB
Хэш (hash) релиза: 3e65f5602401a7176375987e7a85cfd11c62e19a
Подписка на обновления:

Торренты, похожие на Олимпийские Вершины. Фигурное катание Первый Канал HD скачать торрент

Форум Название Автор Размер S L Добавлен
Зимние Олимпийские игры в Сочи 2014 ·· Олимпийские Вершины. Фигурное катание / Первый Канал HD [22.02.2014 г., Хоккей, Документальный, HDTVRip, MKV, 400p] Galfimbul 471830692450 MB 0 0 1393095382

21:56

22-Фев-14

Еще никто не оставлял запись к записи скачать торрент Олимпийские Вершины. Фигурное катание Первый Канал HD . Будь первым!

!Обратная связь