Скачать через торрент XXII Зимние Олимпийские Игры 2014. Бобслей. Мужчины. Четверки. 3-й и 4-й заезды Россия HD Фильм бесплатно в хорошем качестве torrent

Скачивайте на UnionPeer.org фильмы через торрент без регистрации. Новинки кино в хорошем качестве через торрент. На UnionPeer.org можно скачать через торрент фильмы 2014 и 2015 годов. Самые новые фильмы.

Скачать торрент XXII Зимние Олимпийские Игры 2014. Бобслей. Мужчины. Четверки. 3-й и 4-й заезды Россия HD бесплатно через .torrent фильм мультфильм сериал

Если у вас наблюдаются проблемы со скриншотами, переходом по ссылками, скачиванием торрентов - проблемы в блокировщике рекламы AdBlock. #хорошегоДня!


Статистика раздачи
Размер:  1.27 GB   |    Зарегистрирован:  3 года 9 месяцев   |    .torrent скачан:  38 раз   |   
Раздают:  1  
   
Загрузка...
 
Автор Сообщение

Galfimbul

avatar Galfimbul


XXII Зимние Олимпийские Игры 2014. Бобслей. Мужчины. Четверки. 3-й и 4-й заезды

Вид спорта: Бобслей
Комментарий: Профессиональный
Язык комментариев: Русский (Алексей Попов)
Описание: XXII Зимние Олимпийские Игры 2014. Бобслей. Мужчины. Четверки. 3-й и 4-й заезды.

Присутствует церемония награждения!

Автор рипа: sanchez2011

Качество: HDTVRip
Формат: AVI
Видео кодек: XviD
Аудио кодек: MP3
Видео: MPEG4 Visual (H263) 704x400 (16:9) 1500kbps 25fps
Аудио: MPEG Audio Layer 3 48000Hz stereo 128kbps
Все результаты соревнований

Продолжительность: 01:51:26
GeneralComplete name : E:\Олимпиада 2014\XXII Зимние Олимпийские Игры 2014. 23.02.2014 Бобслей. Мужчины. Четверки. 3-й и 4-й заезды.aviFormat : AVIFormat/Info : Audio Video InterleaveFile size : 1.27 GiBDuration : 1h 51mnOverall bit rate : 1 638 KbpsWriting application : VirtualDubMod 1.5.10.2 (build 2540/release)Writing library : VirtualDubMod build 2540/release

VideoID : 0Format : MPEG-4 VisualFormat profile : Advanced Simple@L5Format settings, BVOP : 2Format settings, QPel : NoFormat settings, GMC : No warppointsFormat settings, Matrix : Default (H.263)Codec ID : XVIDCodec ID/Hint : XviDDuration : 1h 51mnBit rate : 1 500 KbpsWidth : 704 pixelsHeight : 400 pixelsDisplay aspect ratio : 16:9Frame rate : 25.000 fpsColor space : YUVChroma subsampling : 4:2:0Bit depth : 8 bitsScan type : ProgressiveCompression mode : LossyBits/(Pixel*Frame) : 0.213Stream size : 1.17 GiB (92%)Writing library : XviD 64

AudioID : 1Format : MPEG AudioFormat version : Version 1Format profile : Layer 3Mode : Joint stereoMode extension : MS StereoCodec ID : 55Codec ID/Hint : MP3Duration : 1h 51mnBit rate mode : ConstantBit rate : 128 KbpsChannel(s) : 2 channelsSampling rate : 48.0 KHzCompression mode : LossyStream size : 102 MiB (8%)Alignment : Aligned on interleavesInterleave, duration : 40 ms (1.00 video frame)Interleave, preload duration : 504 msWriting library : LAME3.100


Трекер:  [ 23-Фев-2014 20:52 ]

  

Скачать .torrent

Размер .torrent файла 13 KB


Размер: 1.27 GB
Хэш (hash) релиза: 0445deda383f9e3fb5b5524f2283d53aed0e48da
Подписка на обновления:

Торренты, похожие на XXII Зимние Олимпийские Игры 2014. Бобслей. Мужчины. Четверки. 3-й и 4-й заезды Россия HD скачать торрент

Форум Название Автор Размер S L Добавлен
Зимние Олимпийские игры в Сочи 2014 ·· XXII Зимние Олимпийские Игры 2014. Бобслей. Мужчины. Четверки. 3-й и 4-й заезды / Россия HD [23.02.2014 г., Бобслей, HDTV, 1080i] Galfimbul 97285862129.06 GB 0 0 1393160668

16:04

23-Фев-14

Еще никто не оставлял запись к записи скачать торрент XXII Зимние Олимпийские Игры 2014. Бобслей. Мужчины. Четверки. 3-й и 4-й заезды Россия HD . Будь первым!

!Обратная связь