Скачать через торрент XI Зимние Паралимпийские Игры 2014 Церемония открытия Фильм бесплатно в хорошем качестве torrent

Скачивайте на UnionPeer.org фильмы через торрент без регистрации. Новинки кино в хорошем качестве через торрент. На UnionPeer.org можно скачать через торрент фильмы 2014 и 2015 годов. Самые новые фильмы.

Скачать торрент XI Зимние Паралимпийские Игры 2014 Церемония открытия бесплатно через .torrent фильм мультфильм сериал

Если у вас наблюдаются проблемы со скриншотами, переходом по ссылками, скачиванием торрентов - проблемы в блокировщике рекламы AdBlock. #хорошегоДня!


Статистика раздачи
Размер:  13.4 GB   |    Зарегистрирован:  3 года 9 месяцев   |    .torrent скачан:  37 раз   |   
Раздают:  1  
   
Загрузка...
 
Автор Сообщение

Galfimbul

avatar Galfimbul


XI Зимние Паралимпийские Игры 2014. Церемония открытия. Первый Канал HD

Комментарий: Профессиональный
Язык комментариев: Русский (Виктор Гусев)
Продолжительность: 01:59:14
Описание: Торжественная Церемония открытия XI зимних Паралимпийских игр 2014 в Сочи. Реклама вырезана!
Автор рипа: sanchez2011
Качество: HDTV
Формат: MPEG-TS
Видео кодек: AVC
Аудио кодек: MP2
Видео: MPEG4 Video (H264) 1920x1080 (16:9) 25.00fps 15100kbps
Аудио: MPEG Audio Layer 2 48000Hz stereo 192kbps
GeneralID : 1 (0x1)Complete name : E:\Паралимпиада 2014\Паралимпиада 2014. Открытие. Первый Канал HD.tsFormat : MPEG-TSFile size : 13.4 GiBDuration : 1h 59mnOverall bit rate mode : VariableOverall bit rate : 16.1 Mbps

VideoID : 2141 (0x85D)Menu ID : 1 (0x1)Format : AVCFormat/Info : Advanced Video CodecFormat profile : Main@L4.0Format settings, CABAC : YesFormat settings, ReFrames : 3 framesCodec ID : 27Duration : 1h 59mnBit rate : 15.1 MbpsWidth : 1 920 pixelsHeight : 1 080 pixelsDisplay aspect ratio : 16:9Frame rate : 25.000 fpsStandard : ComponentColor space : YUVChroma subsampling : 4:2:0Bit depth : 8 bitsScan type : InterlacedScan order : Top Field FirstBits/(Pixel*Frame) : 0.291Stream size : 12.6 GiB (94%)Color primaries : BT.709Transfer characteristics : BT.709Matrix coefficients : BT.709

AudioID : 2142 (0x85E)Menu ID : 1 (0x1)Format : MPEG AudioFormat version : Version 1Format profile : Layer 2Codec ID : 3Duration : 1h 59mnBit rate mode : ConstantBit rate : 192 KbpsChannel(s) : 2 channelsSampling rate : 48.0 KHzCompression mode : LossyDelay relative to video : -40msStream size : 164 MiB (1%)Language : Russian

TextID : 2144 (0x860)-888Menu ID : 1 (0x1)Format : Teletext SubtitleLanguage : Russian

MenuID : 2140 (0x85C)Menu ID : 1 (0x1)Duration : 1h 59mnList : 2141 (0x85D) (AVC) / 2142 (0x85E) (MPEG Audio, Russian) / 2144 (0x860) ()Language : / Russian


Трекер:  [ 09-Мар-2014 12:00 ]

  

Скачать .torrent

Размер .torrent файла 67 KB


Размер: 13.4 GB
Хэш (hash) релиза: c71c38a12ba095a6b1e6fbd3725558539159ff1d
Подписка на обновления:

Торренты, похожие на XI Зимние Паралимпийские Игры 2014 Церемония открытия скачать торрент

Форум Название Автор Размер S L Добавлен
Зимние Олимпийские игры в Сочи 2014 ·· XI Зимние Паралимпийские Игры 2014 / Церемония открытия / Первый Канал HD [07.03.2014, Паралимпиада, HDTVRip, MKV, 720p] Galfimbul 27791135912.59 GB 0 0 1394355772

12:02

9-Мар-14

Спорт ·· XI Зимние Паралимпийские Игры 2014 (Сочи, Россия). Церемония открытия / Первый Канал HD [07.03.2014, Зимние виды спорта, HDTVRip/720p/50fps, MKV/H.264, RU] Galfimbul 40676601543.79 GB 0 0 1503984041

08:20

29-Авг-17

Еще никто не оставлял запись к записи скачать торрент XI Зимние Паралимпийские Игры 2014 Церемония открытия . Будь первым!

!Обратная связь