Скачать через торрент XI Зимние Паралимпийские Игры 2014. Лыжные гонки. Женщины. Классический стиль 15 км. Стоя, с нарушением зрения Россия 2 Фильм бесплатно в хорошем качестве torrent

Скачивайте на UnionPeer.org фильмы через торрент без регистрации. Новинки кино в хорошем качестве через торрент. На UnionPeer.org можно скачать через торрент фильмы 2014 и 2015 годов. Самые новые фильмы.

Скачать торрент XI Зимние Паралимпийские Игры 2014. Лыжные гонки. Женщины. Классический стиль 15 км. Стоя, с нарушением зрения Россия 2 бесплатно через .torrent фильм мультфильм сериал

Если у вас наблюдаются проблемы со скриншотами, переходом по ссылками, скачиванием торрентов - проблемы в блокировщике рекламы AdBlock. #хорошегоДня!


Статистика раздачи
Размер:  1.15 GB   |    Зарегистрирован:  3 года 9 месяцев   |    .torrent скачан:  42 раза   |   
Раздают:  1  
   
Загрузка...
 
Автор Сообщение

Galfimbul

avatar Galfimbul


XI Зимние Паралимпийские Игры 2014. Лыжные гонки. Женщины. Классический стиль 15 км

Вид спорта: Лыжные гонки
Комментарий: Профессиональный
Язык комментариев: Русский (Руслан Гатаулин)
Описание: XI Зимние Паралимпийские Игры 2014. Лыжные гонки. Женщины. Классический стиль 15 км. Стоя, с нарушением зрения.
Автор рипа: sanchez2011
Качество: SATRip
Формат: AVI
Видео кодек: XviD
Аудио кодек: MP3
Видео: MPEG-4 Visual (H263) 720x448 (16:10) 25.00fps 1700kbps
Аудио: MPEG Audio Layer 3 48000Hz stereo 128kbps
Продолжительность: 01:29:56
GeneralComplete name : E:\Паралимпиада 2014\XI Зимние Паралимпийские Игры 2014 10.03.2014 Лыжные гонки. Женщины. Классический стиль 15 км.aviFormat : AVIFormat/Info : Audio Video InterleaveFile size : 1.15 GiBDuration : 1h 29mnOverall bit rate : 1 830 KbpsWriting application : VirtualDubMod 1.5.10.2 (build 2540/release)Writing library : VirtualDubMod build 2540/release

VideoID : 0Format : MPEG-4 VisualFormat profile : Advanced Simple@L5Format settings, BVOP : 2Format settings, QPel : NoFormat settings, GMC : No warppointsFormat settings, Matrix : Default (H.263)Codec ID : XVIDCodec ID/Hint : XviDDuration : 1h 29mnBit rate : 1 693 KbpsWidth : 720 pixelsHeight : 448 pixelsDisplay aspect ratio : 16:10Frame rate : 25.000 fpsColor space : YUVChroma subsampling : 4:2:0Bit depth : 8 bitsScan type : ProgressiveCompression mode : LossyBits/(Pixel*Frame) : 0.210Stream size : 1.06 GiB (92%)Writing library : XviD 64

AudioID : 1Format : MPEG AudioFormat version : Version 1Format profile : Layer 3Mode : Joint stereoMode extension : MS StereoCodec ID : 55Codec ID/Hint : MP3Duration : 1h 29mnBit rate mode : ConstantBit rate : 128 KbpsChannel(s) : 2 channelsSampling rate : 48.0 KHzCompression mode : LossyStream size : 82.3 MiB (7%)Alignment : Aligned on interleavesInterleave, duration : 40 ms (1.00 video frame)Interleave, preload duration : 504 msWriting library : LAME3.100


Трекер:  [ 10-Мар-2014 14:30 ]

  

Скачать .torrent

Размер .torrent файла 12 KB


Размер: 1.15 GB
Хэш (hash) релиза: 2095a9e6f79cead561d5c41b55e70257c46ee519
Подписка на обновления:

Еще никто не оставлял запись к записи скачать торрент XI Зимние Паралимпийские Игры 2014. Лыжные гонки. Женщины. Классический стиль 15 км. Стоя, с нарушением зрения Россия 2 . Будь первым!

!Обратная связь