Скачать через торрент XI Зимние Паралимпийские Игры 2014. Лыжные гонки. Женщины 5 км. Стоя, с нарушением зрения Спорт Фильм бесплатно в хорошем качестве torrent

Скачивайте на UnionPeer.org фильмы через торрент без регистрации. Новинки кино в хорошем качестве через торрент. На UnionPeer.org можно скачать через торрент фильмы 2014 и 2015 годов. Самые новые фильмы.

Скачать торрент XI Зимние Паралимпийские Игры 2014. Лыжные гонки. Женщины 5 км. Стоя, с нарушением зрения Спорт бесплатно через .torrent фильм мультфильм сериал

Если у вас наблюдаются проблемы со скриншотами, переходом по ссылками, скачиванием торрентов - проблемы в блокировщике рекламы AdBlock. #хорошегоДня!


Статистика раздачи
Размер:  547 MB   |    Зарегистрирован:  3 года 8 месяцев   |    .torrent скачан:  46 раз   |   
Раздают:  1  
   
Загрузка...
 
Автор Сообщение

Galfimbul

avatar Galfimbul


XI Зимние Паралимпийские Игры 2014. Лыжные гонки. Женщины 5 км. Стоя, с нарушением зрения

Вид спорта: Лыжные гонки
Комментарий: Профессиональный
Язык комментариев: Русский (Алексей Осин)
Описание: XI Зимние Паралимпийские Игры 2014. Лыжные гонки. Женщины 5 км. Стоя, с нарушением зрения.

В раздаче:
5 км свободным стилем, женщины, стоя
5 км свободным стилем, женщины, с нарушением зрения

Автор рипа: sanchez2011
Качество: SATRip
Формат: AVI
Видео кодек: XviD
Аудио кодек: MP3
Видео: MPEG-4 Visual (H263) 720x448 (16:10) 25.00fps 1700kbps
Аудио: MPEG Audio Layer 3 48000Hz stereo 128kbps
Продолжительность: 00:41:47
GeneralComplete name : E:\Паралимпиада 2014\XI Зимние Паралимпийские Игры 2014 16.03.2014 Лыжные гонки. Женщины 5 км. Стоя, с нарушением зрения.aviFormat : AVIFormat/Info : Audio Video InterleaveFile size : 547 MiBDuration : 41mn 47sOverall bit rate : 1 830 KbpsWriting application : VirtualDubMod 1.5.10.2 (build 2540/release)Writing library : VirtualDubMod build 2540/release

VideoID : 0Format : MPEG-4 VisualFormat profile : Advanced Simple@L5Format settings, BVOP : 2Format settings, QPel : NoFormat settings, GMC : No warppointsFormat settings, Matrix : Default (H.263)Codec ID : XVIDCodec ID/Hint : XviDDuration : 41mn 47sBit rate : 1 692 KbpsWidth : 720 pixelsHeight : 448 pixelsDisplay aspect ratio : 16:10Frame rate : 25.000 fpsColor space : YUVChroma subsampling : 4:2:0Bit depth : 8 bitsScan type : ProgressiveCompression mode : LossyBits/(Pixel*Frame) : 0.210Stream size : 506 MiB (92%)Writing library : XviD 64

AudioID : 1Format : MPEG AudioFormat version : Version 1Format profile : Layer 3Mode : Joint stereoMode extension : MS StereoCodec ID : 55Codec ID/Hint : MP3Duration : 41mn 47sBit rate mode : ConstantBit rate : 128 KbpsChannel(s) : 2 channelsSampling rate : 48.0 KHzCompression mode : LossyStream size : 38.3 MiB (7%)Alignment : Aligned on interleavesInterleave, duration : 40 ms (1.00 video frame)Interleave, preload duration : 504 msWriting library : LAME3.100


Трекер:  [ 16-Мар-2014 11:30 ]

  

Скачать .torrent

Размер .torrent файла 11 KB


Размер: 547 MB
Хэш (hash) релиза: 289194d23bb98b402479b022462436c87f1a9159
Подписка на обновления:

Еще никто не оставлял запись к записи скачать торрент XI Зимние Паралимпийские Игры 2014. Лыжные гонки. Женщины 5 км. Стоя, с нарушением зрения Спорт . Будь первым!

!Обратная связь