Скачать через торрент XI Зимние Паралимпийские Игры 2014 Церемония закрытия Фильм бесплатно в хорошем качестве torrent

Скачивайте на UnionPeer.org фильмы через торрент без регистрации. Новинки кино в хорошем качестве через торрент. На UnionPeer.org можно скачать через торрент фильмы 2014 и 2015 годов. Самые новые фильмы.

Скачать торрент XI Зимние Паралимпийские Игры 2014 Церемония закрытия бесплатно через .torrent фильм мультфильм сериал

Если у вас наблюдаются проблемы со скриншотами, переходом по ссылками, скачиванием торрентов - проблемы в блокировщике рекламы AdBlock. #хорошегоДня!


Статистика раздачи
Размер:  1.44 GB   |    Зарегистрирован:  3 года 8 месяцев   |    .torrent скачан:  43 раза   |   
Раздают:  1  
   
Загрузка...
 
Автор Сообщение

Galfimbul

avatar Galfimbul


XI Зимние Паралимпийские Игры 2014. Церемония закрытия. Спорт 1

Комментарий: Профессиональный
Язык комментариев: Русский (Сергей Брилев и Дмитрий Губерниев)
Продолжительность: 01:46:43
Описание: Торжественная Церемония закрытия XI зимних Паралимпийских игр 2014 в Сочи.

Трансляция полная, реклам во время трансляции не было!
Автор рипа: sanchez2011
Качество: SATRip
Формат: AVI
Видео кодек: XviD
Аудио кодек: MP3
Видео: MPEG-4 Visual (H263) 720x400 (16:9) 25.00fps 1800kbps
Аудио: MPEG Audio Layer 3 48000Hz stereo 128kbps
GeneralComplete name : E:\Паралимпиада 2014\XI Зимние Паралимпийские Игры 2014. Церемония закрытия. Спорт 1 SATRip.aviFormat : AVIFormat/Info : Audio Video InterleaveFile size : 1.44 GiBDuration : 1h 46mnOverall bit rate : 1 932 KbpsWriting application : VirtualDubMod 1.5.10.2 (build 2540/release)Writing library : VirtualDubMod build 2540/release

VideoID : 0Format : MPEG-4 VisualFormat profile : Advanced Simple@L5Format settings, BVOP : 2Format settings, QPel : NoFormat settings, GMC : No warppointsFormat settings, Matrix : Default (H.263)Codec ID : XVIDCodec ID/Hint : XviDDuration : 1h 46mnBit rate : 1 795 KbpsWidth : 720 pixelsHeight : 400 pixelsDisplay aspect ratio : 16:9Frame rate : 25.000 fpsColor space : YUVChroma subsampling : 4:2:0Bit depth : 8 bitsScan type : ProgressiveCompression mode : LossyBits/(Pixel*Frame) : 0.249Stream size : 1.34 GiB (93%)Writing library : XviD 64

AudioID : 1Format : MPEG AudioFormat version : Version 1Format profile : Layer 3Mode : Joint stereoMode extension : MS StereoCodec ID : 55Codec ID/Hint : MP3Duration : 1h 46mnBit rate mode : ConstantBit rate : 128 KbpsChannel(s) : 2 channelsSampling rate : 48.0 KHzCompression mode : LossyStream size : 97.7 MiB (7%)Alignment : Aligned on interleavesInterleave, duration : 40 ms (1.00 video frame)Interleave, preload duration : 504 msWriting library : LAME3.100


Трекер:  [ 16-Мар-2014 22:30 ]

  

Скачать .torrent

Размер .torrent файла 15 KB


Размер: 1.44 GB
Хэш (hash) релиза: 612ca440737b8e5bf613c2dd003a0d917093fc9a
Подписка на обновления:

Торренты, похожие на XI Зимние Паралимпийские Игры 2014 Церемония закрытия скачать торрент

Форум Название Автор Размер S L Добавлен
Зимние Олимпийские игры в Сочи 2014 ·· XI Зимние Паралимпийские Игры 2014 / Церемония закрытия / Спорт 1 [16.03.2014, Паралимпиада, DVB, MPEG, 576i] Galfimbul 25400156162.37 GB 0 0 1394994704

21:31

16-Мар-14

Еще никто не оставлял запись к записи скачать торрент XI Зимние Паралимпийские Игры 2014 Церемония закрытия . Будь первым!

!Обратная связь