Скачать порно через торрент Rape miserably heroine of Red Girl vs. Monster pig man justice UnionPeer.org бесплатно онлайн HD качество

Скачать новое порно 2015, 2014 новинки через торрент UnionPeer.org

Порно торрент бесплатно ЮнионПир.орг

Если у вас наблюдаются проблемы со скриншотами, переходом по ссылками, скачиванием торрентов - проблемы в блокировщике рекламы AdBlock. #хорошегоДня!


Статистика раздачи
Размер:  1.17 GB   |    Зарегистрирован:  3 года 8 месяцев   |    .torrent скачан:  1728 раз   |   
Раздают:  1  
   
Загрузка...
 
Автор Сообщение

Galfimbul

avatar Galfimbul


Rape miserably heroine of Red Girl vs. Monster pig man justice レッドガール対怪人豚男 正義のヒロイン凌辱無残
Год производства: 2014 г.
Жанр: Clasic Sex, Large Cock Supersize, Blowjob
Продолжительность: 40:14
Цензура: Есть во всех файлах

Язык: Японский
Озвучка: Оригинальная
Субтитры: Встроенные неотключаемые (хардсаб)

Студия: EDGE systems | DLSite

Описание: Pretty 18-year-old, Naomi Tachibana (Tachibana Nahomi),
honor student of super heroine training school, but Red Girl.
For the graduation test that defeat the villainous Phantom and headed alone to the hideout of the pig man.
It was a red girl to confront the pig man, but it would have been brought down to the pig man of overwhelming strength.
And thorough humiliation of the Red Girl, Naomi by ugly monster pig man, begins now ...

Качество видео: GameRip
Разрешение видео: 480p
Формат видео: MPEG
Видео кодек: H.264/AVC
Аудио кодек: AAC
Видео: MPEG4 Video (H264) 864x486 30fps [Mainconcept MP4 Video Media Handler - MPEG4 Video (H264)
Аудио 1: AAC 44100Hz stereo 157kbps [spoiler=Video Info]er - MPEG-4 Audio
Video
ID : 1
Format : AVC
Format/Info : Advanced Video Codec
Format profile : Main@L3.1
Format settings, CABAC : No
Format settings, ReFrames : 2 frames
Format settings, GOP : M=1, N=90
Codec ID : avc1
Codec ID/Info : Advanced Video Coding
Duration : 40mn 14s
Source duration : 40mn 14s
Bit rate mode : Variable
Bit rate : 3 979 Kbps
Maximum bit rate : 6 000 Kbps
Width : 864 pixels
Height : 486 pixels
Display aspect ratio : 16:9
Frame rate mode : Variable
Frame rate : 30.000 fps
Minimum frame rate : 30.000 fps
Maximum frame rate : 30.030 fps
Standard : NTSC
Color space : YUV
Chroma subsampling : 4:2:0
Bit depth : 8 bits
Scan type : Progressive
Bits/(Pixel*Frame) : 0.316
Stream size : 1.12 GiB (96%)
Source stream size : 1.12 GiB (96%)
Language : English
Encoded date : UTC 2014-03-27 23:01:31
Tagged date : UTC 2014-03-27 23:01:31
mdhd_Duration : 2414233

Audio
ID : 2
Format : AAC
Format/Info : Advanced Audio Codec
Format profile : LC
Codec ID : 40
Duration : 40mn 14s
Source duration : 40mn 14s
Bit rate mode : Variable
Bit rate : 158 Kbps
Maximum bit rate : 254 Kbps
Channel(s) : 2 channels
Channel positions : Front: L R
Sampling rate : 44.1 KHz
Compression mode : Lossy
Stream size : 45.4 MiB (4%)
Source stream size : 45.4 MiB (4%)
Language : English


Трекер:  [ 30-Мар-2014 13:22 ]

  

Скачать .torrent

Размер .torrent файла 12 KB


Размер: 1.17 GB
Хэш (hash) релиза: 657dd7595b01f89c61adc88e5cd63f511b4b4669

Еще никто не оставлял запись к записи скачать торрент Rape miserably heroine of Red Girl vs. Monster pig man justice . Будь первым!

!Обратная связь