Скачать через торрент Танец Клинков Заклинателей Seirei Tsukai no Blade Dance бесплатно Аниме Все серии на русском torrent

Если у вас наблюдаются проблемы со скриншотами, переходом по ссылками, скачиванием торрентов - проблемы в блокировщике рекламы AdBlock. #хорошегоДня!


Статистика раздачи
Размер:  2.49 GB   |    Зарегистрирован:  3 года 3 месяца   |    .torrent скачан:  15 раз   |   
Раздают:  1  
   
Загрузка...
 
Автор Сообщение

Galfimbul

avatar Galfimbul


Танец Клинков Заклинателей / Seirei Tsukai no Blade Dance / 精霊使いの剣舞

Год выпуска: 2014
Страна: Япония
Жанр: приключения, комедия, этти
Тип: ТВ
Продолжительность: 12 эп., 24 мин.
Озвучка: нет

Русские субтитры: есть (отдельным файлом, формат .ass, перевод - kuro, antiBILLotic, ximik)

Хардсаб: Нет
Режиссер: Янагисава Тэцуя
Студия: TNK

Описание: Лишь чистые девы способны заключать контракты с духами. А школа духов "Алейсия" - как раз то место, где представительницы всех родов знати постигают нелёгкую науку обращения с духами и готовятся стать Заклинателями. Камито, юноша, которому "посчастливилось" повстречать в лесу одну из воспитаниц школы - Клэр Руж, в силу обстоятельств заключает контракт с могущественным духом, которого Клэр считала своей законной добычей. Отвергнув нелепые оправдения Камито ("если бы не я - тебя бы убили" - это ведь не повод, верно?), Клэр требует от него "взять на себя ответственность" и заключить с ней контракт... выступая в роли порабощённого духа! Мало того - всего через несколько часов Камито становится учеником школы "Алейсия" и первым парнем-заклинателем за последнюю тысячу лет. Впрочем, "у каждого есть свои секреты", и наш герой - не исключение.
Что ожидает нашего героя, единственного парня в школе для девушек, единственного Заклинателя-мужчину зв последнюю тысячу лет, человека, который готов на многое, лишь бы исполнить одно-единственное своё Желание?

Видео от: Leopard-Raws
Качество: HDTVrip
Формат: MP4
Видео кодек: AVC
Аудио кодек: AAC
Видео: 1280x720 (16:9) 23,976 fps ~1889 Kbps 8bit
Аудио:
Jap AAC, 48000Hz, ~192 kbps 2ch
01. Меч, школа и девушка-огнекошка
02. Танец клинков в полуночи
03. Святой меч Демоноборец
04. Сильнейший Танцор Клинков
05. Потерянная королева
06. Наследник князя тьмы
07. Сражение в подземном городе
Общее
Полное имя : Z:\Translation\Seirei Tsukai no Blade Dance\01\[Leopard-Raws] Seirei Tsukai no Blade Dance - 01 RAW (ATX 1280x720 x264 AAC).mp4
Формат : MPEG-4
Профиль формата : Base Media
Идентификатор кодека : isom
Размер файла : 358 Мбайт
Продолжительность : 24 м.
Режим общего битрейта : Переменный
Общий поток : 2084 Кбит/сек
Дата кодирования : UTC 2014-07-15 09:39:21
Дата пометки : UTC 2014-07-15 09:39:21

Видео
Идентификатор : 1
Формат : AVC
Формат/Информация : Advanced Video Codec
Профиль формата : High@L4.1
Параметр CABAC формата : Да
Параметр ReFrames формата : 4 кадра
Идентификатор кодека : avc1
Идентификатор кодека/Информация : Advanced Video Coding
Продолжительность : 24 м.
Битрейт : 1889 Кбит/сек
Максимальный битрейт : 9557 Кбит/сек
Ширина : 1280 пикселей
Высота : 720 пикселей
Соотношение сторон : 16:9
Режим частоты кадров : Постоянный
Частота кадров : 23,976 кадра/сек
Цветовое пространство : YUV
Субдискретизация насыщенности : 4:2:0
Битовая глубина : 8 бит
Тип развёртки : Прогрессивная
Бит/(Пиксели*Кадры) : 0.085
Размер потока : 324 Мбайт (91%)
Заголовок : 264:fps=23.976@GPAC0.5.1-DEV-rev4283
Библиотека кодирования : x264 core 129 r2245+729M 1a52e03
Настройки программы : cabac=1 / ref=4 / deblock=1:1:-1 / analyse=0x3:0x113 / me=umh / subme=9 / psy=1 / fade_compensate=0.00 / psy_rd=1.00:0.00 / mixed_ref=1 / me_range=24 / chroma_me=1 / trellis=2 / 8x8dct=1 / cqm=0 / deadzone=21,11 / fast_pskip=1 / chroma_qp_offset=-2 / threads=8 / lookahead_threads=1 / sliced_threads=0 / nr=0 / decimate=1 / interlaced=0 / bluray_compat=0 / constrained_intra=0 / fgo=0 / bframes=9 / b_pyramid=2 / b_adapt=2 / b_bias=0 / direct=1 / weightb=1 / open_gop=0 / weightp=2 / keyint=240 / keyint_min=24 / scenecut=40 / intra_refresh=0 / rc=crf / mbtree=0 / crf=18.0 / qcomp=0.72 / qpmin=0 / qpmax=69 / qpstep=4 / ip_ratio=1.40 / pb_ratio=1.30 / aq=1:0.85
Дата кодирования : UTC 2014-07-15 09:39:21
Дата пометки : UTC 2014-07-15 09:39:23
Основные цвета : BT.709
Характеристики трансфера : BT.709
Коэффициенты матрицы : BT.709

Аудио
Идентификатор : 2
Формат : AAC
Формат/Информация : Advanced Audio Codec
Профиль формата : LC
Идентификатор кодека : 40
Продолжительность : 24 м.
Вид битрейта : Переменный
Битрейт : 192 Кбит/сек
Максимальный битрейт : 201 Кбит/сек
Каналы : 2 канала
Расположение каналов : Front: L R
Частота : 48,0 КГц
Метод сжатия : С потерями
Размер потока : 33,0 Мбайт (9%)
Язык : Japanese
Дата кодирования : UTC 2014-07-15 09:38:41
Дата пометки : UTC 2014-07-15 09:39:23


Трекер:  [ 28-Авг-2014 10:30 ]

  

Скачать .torrent

Размер .torrent файла 52 KB


Размер: 2.49 GB
Хэш (hash) релиза: f947fe2461f4fab685137c928639616ae7158a21
Подписка на обновления:

Торренты, похожие на Танец Клинков Заклинателей Seirei Tsukai no Blade Dance скачать торрент

Форум Название Автор Размер S L Добавлен
Аниме | HD Rips ·· Танец Клинков Заклинателей / Seirei Tsukai no Blade Dance / Blade Dance of Elementalers (Янагисава Тэцуя) [TV] [без хардсаба] [12+6 из 12+6] [JAP+SUB] & [12+0 из 12+6] [RUS(ext)] [2014 г., комедия, фэнтези, романтика, BDRip] [1080p] Galfimbul 1743676637016.24 GB 0 0 1429917458

02:17

25-Апр-15

Аниме | HD Rips ·· Танец Клинков Заклинателей / Seirei Tsukai no Blade Dance / Blade Dance of Elementalers (Янагисава Тэцуя) [TV] [без хардсаба] [12+6 из 12+6] [JAP+SUB] & [12+0 из 12+6] [RUS(ext)] [2014 г., комедия, фэнтези, романтика, BDRip] [720p] Galfimbul 69110403736.44 GB 0 0 1429379408

20:50

18-Апр-15

Аниме | HD Rips ·· Танец Клинков Заклинателей / Seirei Tsukai no Blade Dance / Blade Dance of Elementalers (Янагисава Тэцуя) [TV+Special] [без хардсаба] [2+1 из 12+6] [JAP+SUB] & [2+0 из 12+6] [RUS(ext)] [2014 г., комедия, фэнтези, романтика, BDRemux] [1080p] Galfimbul 1430247378913.32 GB 0 0 1415023564

17:06

3-Ноя-14

Аниме | Rips ·· Танец Клинков Заклинателей / Seirei Tsukai no Blade Dance / Blade Dance of Elementalers (Янагисава Тэцуя) [TV] [2 из 12] [без хардсаба] [RUS(ext), JAP+SUB] [2014 г., комедия, фэнтези, романтика, BDRip] [1080p] Galfimbul 29244517942.72 GB 0 0 1414346661

21:04

26-Окт-14

Аниме | HD Rips ·· Танец Клинков Заклинателей / Seirei Tsukai no Blade Dance / Blade Dance of Elementalers (Янагисава Тэцуя) [TV] [2 из 12] [без хардсаба] [RUS(ext), JAP+SUB] [2014 г., комедия, фэнтези, романтика, BDRip] [1080p] Galfimbul 29244517942.72 GB 0 0 1414346652

21:04

26-Окт-14

Аниме | Rips ·· Танец Клинков Заклинателей / Seirei Tsukai no Blade Dance / Blade Dance of Elementalers (Янагисава Тэцуя) [TV] [2 из 12] [без хардсаба] [RUS(ext), JAP+SUB] [2014 г., комедия, фэнтези, романтика, BDRip] [720p] Galfimbul 1026238048979 MB 0 0 1414339494

19:04

26-Окт-14

Аниме | Rips ·· Танец Клинков Заклинателей / Seirei Tsukai no Blade Dance / Bladedance of Elementalers [TV] [01-06 из 12] [Без хардсаба] [RUS(int), JAP+SUB] [2014 г., комедия, фэнтези, романтика, BDRip] [HWP] Galfimbul 17663815811.65 GB 0 0 1420110760

14:12

1-Янв-15

Еще никто не оставлял запись к записи скачать торрент Танец Клинков Заклинателей Seirei Tsukai no Blade Dance . Будь первым!

!Обратная связь