Скачать через торрент Мастер крутящего момента Master of Torque бесплатно Аниме Все серии на русском torrent

Если у вас наблюдаются проблемы со скриншотами, переходом по ссылками, скачиванием торрентов - проблемы в блокировщике рекламы AdBlock. #хорошегоДня!


Статистика раздачи
Размер:  293 MB   |    Зарегистрирован:  3 года 3 месяца   |    .torrent скачан:  15 раз   |   
Раздают:  1  
   
Загрузка...
 
Автор Сообщение

Galfimbul

avatar Galfimbul


Мастер крутящего момента / Master of Torque

Страна: Япония
Год выпуска: 2014 г.
Жанр: фантастика
Тип: ONA
Продолжительность: 4 эп. по 5 мин.
Режиссер: Икехата Хироши
Студия: YAMAHA Motors

Описание: Компания Yamaha представила первый эпизод аниме-сериала под названием «Мастер крутящего момента» (Master of Torque), который был сделан с целью продвижения новых мотоциклов MT-серии. 4-серийный аниме-сериал рассказывает историю троих молодых байкеров, которые живут в вымышленной версии Токио 2017 года, когда все, кажется, ездят на мотоциклах Yamaha MT-09, MT-07 и MT-09 Street Rally.

Качество: WEBRip
Тип релиза: Без хардсаба
Формат видео: MP4
Наличие линковки: Нет
Видео: H264, 8 bits, 1280x720, 1508 kbps, 30fps
Аудио: AAC, 2ch, 192 kbps, 44.1kHz Язык Японский
Субтитры: ass, отдельным файлом Язык субтитров русский ; Перевод: Хитаги ; Редактор: Vadamas
Format : MPEG-4Format profile : Base Media / Version 2Codec ID : mp42File size : 68.6 MiBDuration : 5mn 38sOverall bit rate mode : VariableOverall bit rate : 1 703 Kbps

VideoID : 1Format : AVCFormat/Info : Advanced Video CodecFormat profile : High@L3.1Format settings, CABAC : YesFormat settings, ReFrames : 1 frameCodec ID : avc1Codec ID/Info : Advanced Video CodingDuration : 5mn 38sBit rate : 1 508 KbpsMaximum bit rate : 5 569 KbpsWidth : 1 280 pixelsHeight : 720 pixelsDisplay aspect ratio : 16:9Frame rate mode : ConstantFrame rate : 30.000 fpsColor space : YUVChroma subsampling : 4:2:0Bit depth : 8 bitsScan type : ProgressiveBits/(Pixel*Frame) : 0.055Stream size : 60.8 MiB (89%)

AudioID : 2Format : AACFormat/Info : Advanced Audio CodecFormat profile : LCCodec ID : 40Duration : 5mn 38sBit rate mode : VariableBit rate : 192 KbpsMaximum bit rate : 201 KbpsChannel count : 2 channelsChannel positions : Front: L RSampling rate : 44.1 KHzCompression mode : LossyStream size : 7.74 MiB (11%)
1. Idle Roughness
2. Understeer


Трекер:  [ 01-Сен-2014 16:30 ]

  

Скачать .torrent

Размер .torrent файла 12 KB


Размер: 293 MB
Хэш (hash) релиза: fda791804c7ef2f7a7d5771b0226ec0400428da4
Подписка на обновления:

Еще никто не оставлял запись к записи скачать торрент Мастер крутящего момента Master of Torque . Будь первым!

!Обратная связь