Скачать через торрент Железнодорожные войны! Rail Wars! бесплатно Аниме Все серии на русском torrent

Если у вас наблюдаются проблемы со скриншотами, переходом по ссылками, скачиванием торрентов - проблемы в блокировщике рекламы AdBlock. #хорошегоДня!


Статистика раздачи
Размер:  19.73 GB   |    Зарегистрирован:  3 года 2 месяца   |    .torrent скачан:  39 раз   |   
Раздают:  1  
   
Загрузка...
 
Автор Сообщение

Galfimbul

avatar Galfimbul



Страна: Япония
Год выпуска: 2014 г.
Жанр: приключения
Тип: TV
Продолжительность: 12 эп. по 25 мин.
Режиссер: Суэда Ёсифуми
Студия: Passione

Описание: Только в Японии есть слово, означающее крайнюю степень любви к поездам и готовность провести в них всю жизнь. Мир сериала именно для таких – в нем госмонополист ЯЖД опутал железными нитями всю страну Ямато и, несмотря на отсутствие конкурентов, с восточным коварством борется за наивысший уровень сервиса и комфорта для пассажиров. Любая работа «на дороге» почетна и престижна, а если еще и душа к ней лежит, то прямой путь в академию, куда и поступает главный герой Наото Такаяма. Еще на подготовительных курсах судьба закинула парня на отделение безопасности, где он и встретил своих друзей и коллег!

Итак, каковы же будущие звезды японской дорожной полиции? Сам Наото, разумеется, фанат поездов, внешне заурядный, но сообразительный. Аой Сакурай – пламенноволосая девушка-воин, все комплексы прилагаются. Грудастая Харука Коми – просто ходячая энциклопедия, с виду милая барышня, но пара секретов за душой есть и у нее. Здоровяк Сё Ивайдзуми, везде таскающий армейский «броник» - бесценный кадр, если не отпускать одного и ставить предельно четкие задачи. Их командир Нана Ида – из тех компетентных красавиц, что коня на скаку остановит… просто пригласив на чайную церемонию. В общем, с такими защитниками порядка на дорогах шансов нет ни у мелких гопников, ни у более серьезных бандитов-прихватизаторов. Смотрите сами и убедитесь!
© Hollow, World Art

Дословно название сериала переводится как «Рельсовые войны», можно понять его и как «Железнодорожные войны». Фантастичность ситуации в том, что в Японии, как и в нынешней России, железные дороги давно вышли из госсобственности и полностью приватизированы.

Доп. информация: AniDB || World Art || MAL

Качество: BDRemux
Тип релиза: Без хардсаба
Формат видео: M2TS
Наличие линковки: Нет
Видео: AVC, 1920x1080, 35,6 mbps, 23.976 fps, 8 bit
Аудио JAP: LPCM, 2304 kbps, 48000 Hz, 2 ch
Аудио RUS 1-3: AC3, 48000Hz, ~192 Kbps, 2ch (внешним файлом)

одноголосая (муж.) от Sad_Kit (Anything-group)
одноголосая (муж.) от Molodoy (ARRU)
двухголосая (муж./жен.) от Absurd & Eladiel

Субтитры: русские от Hariton Harko (полные/вспомогательные)
ОбщееИдентификатор : 0 (0x0)Полное имя : R:\Anime\Rail Wars [BDRemux]\Rail Wars 01.m2tsФормат : BDAVФормат/Информация : Blu-ray VideoРазмер файла : 6,68 ГбайтПродолжительность : 24 м.Режим общего битрейта : ПеременныйОбщий поток : 39,5 Мбит/секМаксимальный общий битрейт : 48,0 Мбит/сек

ВидеоИдентификатор : 4113 (0x1011)Идентификатор меню : 1 (0x1)Формат : AVCФормат/Информация : Advanced Video CodecПрофиль формата : High@L4.1Параметр CABAC формата : ДаПараметр ReFrames формата : 2 кадраИдентификатор кодека : 27Продолжительность : 24 м.Вид битрейта : ПеременныйБитрейт : 35,6 Мбит/секШирина : 1920 пикселейВысота : 1080 пикселейСоотношение сторон : 16:9Частота кадров : 23,976 кадра/секЦветовое пространство : YUVСубдискретизация насыщенности : 4:2:0Битовая глубина : 8 битТип развёртки : ПрогрессивнаяБит/(Пиксели*Кадры) : 0.717Размер потока : 6,02 Гбайт (90%)

АудиоИдентификатор : 4352 (0x1100)Идентификатор меню : 1 (0x1)Формат : PCMПараметр Endianness формата : BigПараметр Sign формата : SignedРежим смешивания : Blu-rayИдентификатор кодека : 128Продолжительность : 24 м.Вид битрейта : ПостоянныйБитрейт : 2304 Кбит/секКаналы : 2 каналаРасположение каналов : Front: L RЧастота : 48,0 КГцБитовая глубина : 24 битРазмер потока : 399 Мбайт (6%)
01. Welcome to K4!
02. Let Me Stay Like This for Just a Little While
[url]...4780593[/url]
[url]...4829715[/url]
[url]...4776638[/url]
[url]...4796511[/url]
[url]...4827521[/url]
- BDRemux


Трекер:  [ 23-Сен-2014 01:00 ]

  

Скачать .torrent

Размер .torrent файла 101 KB


Размер: 19.73 GB
Хэш (hash) релиза: 6bbafb8c784774080911bde608ee5efbd690182c
Подписка на обновления:

Торренты, похожие на Железнодорожные войны! Rail Wars! скачать торрент

Форум Название Автор Размер S L Добавлен
Аниме | Rips ·· Железнодорожные войны! / Rail Wars! (Суэда Ёсифуми) [TV] [2 из 12] [без хардсаба] [RUS(ext), JAP+SUB] [2014 г., приключения, BDRip] [1080p] Galfimbul 37389672163.48 GB 0 0 1411416168

23:02

22-Сен-14

Аниме | HD Rips ·· Железнодорожные войны! / Rail Wars! (Суэда Ёсифуми) [TV] [2 из 12] [без хардсаба] [RUS(ext), JAP+SUB] [2014 г., приключения, BDRip] [1080p] Galfimbul 38788361423.61 GB 0 0 1411416087

23:01

22-Сен-14

Аниме | Rips ·· Железнодорожные войны! / Rail Wars! (Суэда Ёсифуми) [TV] [2 из 12] [без хардсаба] [RUS(ext), JAP+SUB] [2014 г., приключения, BDRip] [720p] Galfimbul 16976490841.58 GB 0 0 1411218114

16:01

20-Сен-14

Аниме | HD Rips ·· Железнодорожные войны! / Rail Wars! (Суэда Ёсифуми) [TV] [2 из 12] [без хардсаба] [RUS(ext), JAP+SUB] [2014 г., приключения, BDRip] [720p] Galfimbul 18375180101.71 GB 0 0 1411218072

16:01

20-Сен-14

Аниме | HD Rips ·· Железнодорожные войны! / Rail Wars! (Суэда Ёсифуми) [TV] [01-08 из 12] [Без хардсаба] [RUS(int), JAP, SUB] [2014 г., приключения, HDTVRip] [720p] Galfimbul 35712877593.33 GB 0 0 1409193039

05:30

28-Авг-14

Аниме | HD Rips ·· Железнодорожные войны! / RAIL WARS! [TV] [08 из 12] [Без хардсаба] [JAP, SUB] [2014 г., приключения, WEBRip] [1080p] Galfimbul 46460809234.33 GB 0 0 1409056504

15:35

26-Авг-14

Аниме | HD Rips ·· Железнодорожные Войны! / Rail Wars! (Суэда Ёсифуми) [TV] [8 из 12] [без хардсаба] [JAP+SUB] [2014 г., приключения, HDTVRip] [720p] Galfimbul 30598151112.85 GB 0 0 1409056323

15:32

26-Авг-14

Аниме | Rips ·· Железнодорожные Войны! / Rail Wars! [TV] [1-7 из 12] [Без хардсаба] [RUS(int)] [2014 г., приключения, комедия, романтика, HDTVRip] [720p] Galfimbul 28431128422.65 GB 0 0 1409056093

15:28

26-Авг-14

Аниме | Rips ·· Железнодорожные войны! / Rail Wars! [TV] [01-05 из >12] [Без хардсаба] [RUS(int), JAP+SUB] [2014 г., приключения, HDTVRip] [HWP] Galfimbul 16001302281.49 GB 0 0 1409055642

15:20

26-Авг-14

Еще никто не оставлял запись к записи скачать торрент Железнодорожные войны! Rail Wars! . Будь первым!

!Обратная связь